&title=パズル裏3-1から5-10
&artist=
&freemsg=
&wholebpm=155
&lv_1=
&lv_2=
&lv_3=
&lv_4=8
&lv_5=10
&lv_6=
&lv_7=
&seek=
&wait=
&first=0.44
&des_1=
&des_2=
&des_3=
&des_4=JT
&des_5=mai-Star
&des_6=mai-Star
&des_7=
&inote_1=
&inote_2=
&inote_3=
&inote_4=
(150.3){4}
1,5,3,7,
2,4,6,8,
1,3,5,7,
12,56,37,48,
1,5,3,7,
2,4,6,8,
1,3,5,7,
12,56,37,48,
1,5,3,7,
2,4,6,8,
1,3,5,7,
12,56,37,48,
(150.7)
8h[4:1],,7h[4:1],,
4h[4:3]/5h[4:2],,,,
3h[4:1],,4h[4:1],,
1h[4:3]/6h[4:2],,,,
8h[4:1],,2h[4:1],,
3h[4:3]/2h[4:2],,,,
6h[4:1],,4h[4:1],,
7h[4:3]/6h[4:2],,,,
7v5[4:1.3]/1v3[4:1.3],,,,
2v4[4:1.3]/6v8[4:1.3],,,,
7v5[4:1.3]/1v3[4:1.3],,,,
2v4[4:1.3]/6v8[4:1.3],,,,
7-4[4:1.3]/8-3[4:1.3],,,,
2-5[4:1.3]/1-6[4:1.3],,,,
7-4[4:1.3]/8-3[4:1.3],,,,
2-5[4:1.3]/1-6[4:1.3],,,
{8}
8b,8b,
{4}
3,5,6,4,
2,7,1,8,
3,5,6,4,
2b,7b,1b,8b,
1,5,3,7,
2,4,6,8,
1,3,5,7,
12,56,37,48,
1,5,3,7,
2,4,6,8,
1,3,5,7,
12,56,37,48,
1,5,3,7,
2,4,6,8,
1,3,5,7,
12,56,37,48,
8h[4:1],,7h[4:1],,
4h[4:3]/5h[4:2],,,,
3h[4:1],,4h[4:1],,
1h[4:3]/6h[4:2],,,,
8h[4:1],,2h[4:1],,
3h[4:3]/2h[4:2],,,,
6h[4:1],,4h[4:1],,
7h[4:3]/6h[4:2],,,,
7v5[4:1.3]/1v3[4:1.3],,,,
2v4[4:1.3]/6v8[4:1.3],,,,
7v5[4:1.3]/1v3[4:1.3],,,,
2v4[4:1.3]/6v8[4:1.3],,,,
7-4[4:1.3]/8-3[4:1.3],,,,
2-5[4:1.3]/1-6[4:1.3],,,,
7-4[4:1.3]/8-3[4:1.3],,,,
2-5[4:1.3]/1-6[4:1.3],,,
{8}
8b,8b,
{4}
3,5,6,4b/2b,
2,7,1b/2b,8b/7b,
3,5,6,4b/2b,
{8}
2,2,4,4,6,6,8b/3b,,
&inote_5=
(150.5){8}
12,12,56,56,37,37,48,48,
12,12,56,56,3-7[8:0.2],,1-5[8:0.2],,
1h[8:1],2,5h[8:1],6,3h[8:1],4,7h[8:1],8,
12,12,56,56,3v4[8:0.2],,1v2[8:0.2],,
12,12,56,56,37,37,48,48,
12,12,56,56,3-7[8:0.2],,1-5[8:0.2],,
1h[8:1],2,5h[8:1],6,3h[8:1],4,7h[8:1],8,
12,12,56,56,3v4[8:0.2],,1v2[8:0.2],,
12,12,56,56,37,37,48,48,
12,12,56,56,3v6[8:0.2],,1v8[8:0.2],,
1h[8:1],2,5h[8:1],6,3h[8:1],4,7h[8:1],8,
12,12,56,56,3z7[8:0.2],,6s2[8:0.2],,
12,12,56,56,37,37,48,48,
12,12,56,56,3-7[8:0.2],,1-5[8:0.2],,
1h[8:1],2,5h[8:1],6,3h[8:1],4,7h[8:1],8,
12,12,56,56,3v4[8:0.2],,1v2[8:0.2],,
12,12,56,56,37,37,48,48,
12,12,56,56,4-7[8:0.2],,1-4[8:0.2],,
1h[8:1],2,5h[8:1],6,3h[8:1],4,7h[8:1],8,
12,12,56,56,3v6[8:0.2],,1v6[8:0.2],,
12,12,56,56,37,37,48,48,
12,12,56,56,3v6[8:0.2],,5v8[8:0.2],,
1h[8:1],2,5h[8:1],6,3h[8:1],4,7h[8:1],8,
12,12,56,56,3z7[8:0.2],,6s2[8:0.2],,
(151.01)
12,12,56,56,37,37,48,48,
12,12,56,56,3v6[8:0.2],,5v8[8:0.2],,
1h[8:1],2,5h[8:1],6,3h[8:1],4,7h[8:1],8,
12,12,56,56,37,48,6b/3b,6b/3b,
1,1,4,4,5,5,8,8,
2,2,7,7,6,6,3,3,
1,1,5,5,4,4,8,8,
3,5,3,5,7,1,7,1,
(150.6){16}
4,5,4,,5,,5,,3,,3,,1,,1,,
2,7,8,,6,,6,,2,,2,,4,,1,,
4,5,4,,5,,5,,3,,3,,1,,1,,
8,7,8,,6,,6,,2,,2,,4,,1,,
2,5,4,,5,,5,,3,,3,,1,,1,,
8,7,8,,6,,6,,2,,2,,4,,1,,
4,2,4,,5,,5,,3,,3,,1,,1,,
8,6,8,,6,,6,,2,,2,,4,,1,,
(150.4)
2,5,4,,5,,5,,3,,3,,1,,1,,
1,7,8,,6,,6,,2,,2,,4,,1,,
4,5,4,,5,,5,,3,4,3,4,1,,1,,
3,7,8,,6,,6,,2,4,2,1,4,,1,,
(150.71)
2,5,4,,5,,5,,3,,3,,1,,1,,
8,7,8,,6,4,6,,2,,2,,4,,1,,
1,5,4,,5,,5,,3,,3,,1,,1,,
1,7,8,,6,1,6,,2,,2,,4,,1,,
4,5,4,,5,,5,,3,,3,,1,,1,,
8,7,8,,6,,6,,2,,2,,4,,1,,
4,5,4,,5,,5,,3,,3,,1,,1,,
8,7,8,,6,,6,,2,,2,,4,,1,,
(150.84)
4,5,4,,5,,5,,3,,3,,1,,1,,
8,7,8,,6,,6,,2,,2,,4,,1,,
4,5,4,,5,,5,,3,,3,,1,,1,,
8,7,8,,6,,6,,2,,2,,4,,1,,
4,5,4,,5,,5,,3,,3,,1,,1,,
8,7,8,,6,,6,,2,,2,,4,,1,,
4,5,4,,5,,5,,3,,3,,1,,1,,
8,7,8,,6,,6,,2,,2,,4b/8b,,6b/2b,,
8,7,8,,6,,6,,4,3,4,,1,,1,,
1,2,1,,8,,8,,5,6,5,,7,,7,,
3,4,3,,3,,3,,5,,5,,5,6,5,,
1,2,1,,5,6,5,,1s5[16:2.2],,,,0,,,,
&inote_6=
&inote_7=
