&title=ヨッシーのパネポンパズル4
&artist=
&freemsg=
&wholebpm=151
&lv_1=
&lv_2=
&lv_3=
&lv_4=8
&lv_5=11
&lv_6=
&lv_7=
&seek=
&wait=
&first=0.38
&des_1=
&des_2=
&des_3=
&des_4=JT
&des_5=mai-Star
&des_6=mai-Star
&des_7=
&inote_1=
&inote_2=
&inote_3=
&inote_4=
(149.55){4}
8,12,8,12,
1,56,1,56,
3,4,7,8,
8h[4:1],7h[4:1],6h[4:1],5b,
(150.9){8}
1,1,2,,3,3,4,,
5,5,6,,6,5,4,3,
7,8,1,,4,3,4,,
5,6,5,,2,2,8,8,
1,1,2,,3,3,4,,
5,5,6,,6,5,4,3,
7,8,1,,4,3,4,,
5,5,7,7,1s5[8:0.77],,,,
2,1,2,,5,6,5,,
4,3,4,,7,8,7,,
5,6,5,,3,4,3,,
5,5,7,7,24,,68,,
1,1,2,,3,3,4,,
5,5,6,,6,5,4,3,
7,8,1,,4,3,4,,
5,6,5,,2,7,2,,
5,5,7,7,8z4[8:0.77],,,,
(150.25)
2,1,2,,5,6,5,,
4,3,4,,7,8,7,,
5,6,5,,3,4,3,,
1,2,1,,6,4,6,,
(150.45)
8,2,8,,5,6,5,,
2,3,2,,4,8,4,,
1,1,3,,5,7,5,,
5,5,7,7,1v3[8:0.77]/5v7[8:0.77],,,,
(150.6)
2,1,2,,5,6,5,,
4,3,4,,7,8,7,,
5,6,5,,3,4,3,,
1,2,1,,6,4,6,,
8,2,8,,5,,5,,
2,3,2,,4,,4,,
1,1,3,,5,,5,,
6,6,4,,8,,2,,
5,5,7,7,8-4[8:0.77]/2-6[8:0.77],,,,
{1}
,E
&inote_5=
(149.6){16}
6,,5,6,5,,4,5,3,,4,3,4,,2,4,
8,7,6,5,4,3,2,1,8,7,6,5,4,3,2,1,
6,,5,6,5,,4,5,3,,4,3,4,,2,4,
8,7,6,5,4,3,2,1,8,7,6,5,4,3,2,1,
(150.95)
1,,2,1,7,,8,7,
8,2,7,1,6,3,4,5,
6,,5,6,4,,3,4,
6,3,4,5,8,1,2,7,
1,,2,1,7,,8,7,
8,2,7,1,6,3,4,5,
6,,5,6,4,,3,4,
6,3,4,5,8,1,2,7,
4,,8,4,1,,5,1,
2,,6,2,7,,3,7,
5,6,5,,5,6,7,,
2,4,3,,3,4,3,,
4,,8,4,1,,5,1,
2,,6,2,7,,3,7,
5,6,5,,5,6,7,,
2,4,3,,3,4,3,,
(150.66)
1,,2,1,7,,8,7,
8,2,7,1,6,3,4,5,
6,,5,6,4,,3,4,
6,3,4,5,8,1,2,7,
1,,2,1,7,,8,7,
8,2,7,1,6,3,4,5,
6,,5,6,4,,3,4,
6,3,4,5,8,1,2,7,
(150.77){4}
4-1[4:0.25],1-6[4:0.25],6-3[4:0.25],8b,
1-4[4:0.25],4-7[4:0.25],7v2[4:0.25],3b,
4-1[4:0.25],1-6[4:0.25],6-3[4:0.25],8b,
1-4[4:0.25],4-7[4:0.25],7v2[4:0.25],3b,
1-4[4:0.25],5-8[4:0.26],8q1[4:0.25],3b,
(150.5){16}
1,,2,1,7,,8,7,
8,2,7,1,6,3,4,5,
6,,5,6,4,,3,4,
6,3,4,5,8,1,2,7,
1,,2,1,7,,8,7,
8,2,7,1,6,3,4,5,
6,,5,6,4,,3,4,
6,3,4,5,8,1,2,7,
(150.2)
4,,8,4,1,,5,1,
2,,6,2,7,,3,7,
5,6,5,,5,6,7,,
2,4,3,,3,4,3,,
4,,8,4,1,,5,1,
2,,6,2,7,,3,7,
5,6,5,,5,6,7,,
2,4,3,,3,4,3,,
(150.81)
1,,2,1,7,,8,7,
8,2,7,1,6,3,4,5,
6,,5,6,4,,3,4,
6,3,4,5,8,1,2,7,
(150.64)
1,,2,1,7,,8,7,
8,2,7,1,6,3,4,5,
6,,5,6,4,,3,4,
6,3,4,5,8,1,2,7,
6,,7,6,3,,2,3,
5h[16:1],,4h[16:1],,8^3[8:0.34],,1,,
4,,7,4,3,,1,3,
1h[16:1],,4h[16:1],,6^1[8:0.34],,5,,
6,,1,6,5,,2,5,
5h[16:1],,6h[16:1],,7^4[8:0.34],,1,,
6,,7,8,3,,2,4,
2h[16:1],,4h[16:1],,5s1[8:0.34],,3,,
1,5,1,5,3,7,3,7,1,5,1,5,3b,,7b,5b,
(10){1}
,,E
&inote_6=
&inote_7=
