&title=僕たちの行方
&artist=
&freemsg=ReMASTERあり
&wholebpm=102.0
&lv_1=
&lv_2=
&lv_3=
&lv_4=8
&lv_5=9
&lv_6=11
&lv_7=
&seek=
&wait=
&first=12
&des_1=
&des_2=
&des_3=
&des_4=MORITA
&des_5=mai-Star
&des_6=mai-Star
&des_7=
&inote_1=
&inote_2=
&inote_3=
&inote_4=
>>前奏12秒
(102){4}
5/6h[4:3],,,,
3/4h[4:3],,,,
1/2h[4:3],,,,
7/8h[4:3],,,,
5/6v1[5:3],,,,
3/4v7[5:3],,,,
1/2v5[5:3],,,,
7/6<3[2.1:2.5],,,,
,,
7h[4:1],,8,8,
6h[4:1],,5,5,
3h[4:1],,4,4,
1h[4:1],,2,2,
72,7b/2b,
{8}
8,,6,,,3,3,,
4,,2,,,1,1,,
2,,7,,,5,5,,
4,5,4,,8-4[7:0.78],,,,
8,,67,,,3,3,,
4,,23,,,1,1,,
2,,45,,,5,5,,
4,5,4,,1-5[7:0.78],,,,
3,2,3,,3p5[8:1.31],,,,
6,7,6,,1q7[8:1.31],,,,
3,2,3,,3^6[8:1.31],,,,
6,7,6,,1^6[8:1.31],,,,
3,2,3,,2v1[8:1.31],,,,
6,7,6,,5v6[8:1.31],,,,
3,2,3,,3,4,2,1,
5q7[7.1:4.41],,,,,,,,
,,,,,,,,
1,1,3,3,5,5,7,7,
2,2,4,4,6,6,8,,
8,8,7,,5,5,3,,
1,1,2,,6,6,4b,,
1,1,3,3,5,5,7,7,
2,2,4,4,6,6,8,,
8,8,7,,5,5,3,,
1,1,2,,6,6,4b,,
12,12,34,34,56,56,
{16}
8b,8b,
&inote_5=
(102){4}
5/6h[4:3],5,5,5,
3/4h[4:3],3,3,3,
1/2h[4:3],1,1,1,
7/8h[4:3],7,7,7,
5/6v1[5:3],4,5,4,
3/4v7[5:3],2,3,2,
1/2v5[6.25:3],8,1,8,
5p4[5:5.11]/4>5[5:5.11],,,,
,,
{8}
1,2,1,2,5,5,5,5,
8,1,8,1,4,4,4,4,
1,5,2,6,1,5,2,6,
3,3,4,4,7,7,8,8,
{4}
72,7b/2b,
{8}
8,4,6,2,,3,3,3,
4,6,2,8,,1,1,1,
2,8,7,1,,5,5,5,
4,5,4,5,8z4[7:0.78],,,,
8,8,67,67,,3,3,,
4,4,23,23,,1,1,,
2,2,45,45,,5,5,,
4,5,4,5,1s5[7:0.78],,,,
{4}
3v5[4:0.44],3v6[4:0.44],5v7[4:0.44],1v3[4:0.44],
3^6[4:0.44],3-8[4:0.44],8z4[4:0.44],4-1[4:0.44],
3v5[4:0.44],3v6[4:0.44],5v7[4:0.44],1v3[4:0.44],
3^6[4:0.44],1-5[4:0.44],5s1[4:0.44],1^6[4:0.44],
3v5[4:0.44],3v6[4:0.44],5v7[4:0.44],1v3[4:0.44],
3^6[4:0.44],3-8[4:0.44],8z4[4:0.44],4p7[4:0.44],
{8}
3,2,3,4,3,4,2,1,
5p4[7.1:4.41],,,,,,,,
,,,,,,,,
{16}
1,2,1,,3,,3,,5,6,5,,4,,4,,
5,6,5,,7,,7,,8,4,8,,2,,2,,
1,2,1,,5,6,5,,3,4,3,,7,,7,,
8,,8,,4,,4,,8,1,8,1,8,1,8,,
1,2,1,,3,,3,,5,6,5,,4,,4,,
5,6,5,,7,,7,,8,4,8,,2,,2,,
1,2,1,,5,6,5,,3,4,3,,7,,7,,
8,,2,,4,,6,,5,4,5,,6,3,6,,
{8}
12,12,34,34,56,56,
{16}
1b,1b,
&inote_6=
(102){8}
8,8,8,8,4b,4b,4b,4b,
2,2,2,2,6b,6b,6b,6b,
2,2,2,4,6,6,6,8,
1b,2b,3b,4b,5b,6b,7b,8b,
8,8,8,8,4b,4b,4b,4b,
2,2,2,2,6b,6b,6b,6b,
2,2,2,4,6,6,6,8,
1b,2b,3b,,5b,6b,7b,,
1b,2b,3b,4b,
{16}
1,1,,4,4,,7,,2,2,,5,5,,8,,
2,5,,5,2,,36,,
8,1,,1,8,,72,,
1,1,,4,4,,7,,2,2,,5,5,,8,,
2,5,,5,2,,36,,
8,1,,1,8,,72,,
1,2,3,4,5,6,7,8,
1,2,1,,5,6,5,,7v8[16:0.3],,,,3v4[16:0.3],,,,
7,8,7,,3,4,3,,1v2[16:0.3],,,,5v6[16:0.3],,,,
1,2,1,,5,6,5,,7v8[16:0.3],,,,3v4[16:0.3],,,,
7,8,7,,3,4,3,,1h[16:1]/3h[8:1],,,,7h[16:1]/5h[8:1],,,,
1,2,1,,5,6,5,,7-4[16:0.3],,,,2-5[16:0.3],,,,
7,8,7,,3,4,3,,8-3[16:0.3],,,,1-6[16:0.3],,,,
7,8,7,8,3,4,3,,8z4[16:0.3],,,,1s5[16:0.3],,,,
5,2,5,,6,1,6,,4,8,4,,7,3,7,,
1,5,1,5,2,6,2,6,3,7,3,7,4,8,4,,
4,6,4,6,4,6,4,6,2,8,2,8,1,3,5,,
1,5,1,5,2,6,2,6,3,7,3,7,4,8,4,,
4,6,4,6,4,6,4,6,2,8,2,8,1,3,5,,
1,5,1,5,2,6,2,6,3,7,3,7,4,8,4,,
4,6,4,6,4,6,4,6,2,8,2,8,1,3,5,,
1,5,1,5,2,6,2,6,3,7,3,7,4,8,4,,
4,6,4,6,4,6,4,6,2,8,2,8,1,3,5,,
{4}
,,,,
8-6[4:0.4],4-2[4:0.4],1-5[4:0.4],3-7[4:0.4],
7-1[4:0.4],6-2[4:0.4],5-3[4:0.4],3v4[4:0.4],
8-6[4:0.4],4-2[4:0.4],1-5[4:0.4],3-7[4:0.4],
7-1[4:0.4],6-2[4:0.4],5-3[4:0.4],8v7[4:0.4],
8-6[4:0.4],4-2[4:0.4],1-5[4:0.4],3-7[4:0.4],
7-1[4:0.4],6-2[4:0.4],5-3[4:0.4],3v4[4:0.4],
8-6[4:0.4],4-2[4:0.4],1-5[4:0.4],3-7[4:0.4],
7-1[4:0.4],6-2[4:0.4],5-3[4:0.4],3s7[24:0.4],
{16}
1,2,3,4,5,6,7,8,1,2,3,,8b/1b,8b/1b,
&inote_7=
