<?xml version="1.0" standalone="no"?>
<!DOCTYPE svg PUBLIC "-//W3C//DTD SVG 1.1//EN" "http://www.w3.org/Graphics/SVG/1.1/DTD/svg11.dtd" >
<svg>
<metadata>
Created by FontForge 20120731 at Tue May  3 16:06:03 2016
 By root
MASUDA mitiya
</metadata>
<defs>
<font id="Conpane" horiz-adv-x="512" >
  <font-face 
    font-family="Conpane"
    font-weight="400"
    font-stretch="normal"
    units-per-em="1024"
    panose-1="5 0 0 0 0 0 0 0 0 0"
    ascent="896"
    descent="-128"
    x-height="664"
    cap-height="747"
    bbox="0 -91 1024 866"
    underline-thickness="48"
    underline-position="-72"
    unicode-range="U+0020-FB02"
  />
<missing-glyph 
d="M206 400v100h100v-100h-100z" />
    <glyph glyph-name=".notdef" 
d="M206 400v100h100v-100h-100z" />
    <glyph glyph-name=".notdef" 
d="M206 400v100h100v-100h-100z" />
    <glyph glyph-name=".notdef" 
d="M206 400v100h100v-100h-100z" />
    <glyph glyph-name=".notdef" 
d="M206 400v100h100v-100h-100z" />
    <glyph glyph-name=".notdef" 
d="M206 400v100h100v-100h-100z" />
    <glyph glyph-name=".notdef" 
d="M206 400v100h100v-100h-100z" />
    <glyph glyph-name=".notdef" 
d="M206 400v100h100v-100h-100z" />
    <glyph glyph-name=".notdef" 
d="M206 400v100h100v-100h-100z" />
    <glyph glyph-name=".notdef" 
d="M206 400v100h100v-100h-100z" />
    <glyph glyph-name=".notdef" 
d="M206 400v100h100v-100h-100z" />
    <glyph glyph-name=".notdef" 
d="M206 400v100h100v-100h-100z" />
    <glyph glyph-name=".notdef" 
d="M206 400v100h100v-100h-100z" />
    <glyph glyph-name=".notdef" 
d="M206 400v100h100v-100h-100z" />
    <glyph glyph-name=".notdef" 
d="M206 400v100h100v-100h-100z" />
    <glyph glyph-name=".notdef" 
d="M206 400v100h100v-100h-100z" />
    <glyph glyph-name=".notdef" 
d="M206 400v100h100v-100h-100z" />
    <glyph glyph-name=".notdef" 
d="M206 400v100h100v-100h-100z" />
    <glyph glyph-name=".notdef" 
d="M206 400v100h100v-100h-100z" />
    <glyph glyph-name=".notdef" 
d="M206 400v100h100v-100h-100z" />
    <glyph glyph-name=".notdef" unicode="&#xd;" 
d="M206 400v100h100v-100h-100z" />
    <glyph glyph-name=".notdef" 
d="M206 400v100h100v-100h-100z" />
    <glyph glyph-name=".notdef" 
d="M206 400v100h100v-100h-100z" />
    <glyph glyph-name=".notdef" unicode="&#xa;" 
d="M206 400v100h100v-100h-100z" />
    <glyph glyph-name=".notdef" unicode="&#x9;" 
d="M206 400v100h100v-100h-100z" />
    <glyph glyph-name=".notdef" 
d="M206 400v100h100v-100h-100z" />
    <glyph glyph-name=".notdef" 
d="M206 400v100h100v-100h-100z" />
    <glyph glyph-name=".notdef" 
d="M206 400v100h100v-100h-100z" />
    <glyph glyph-name=".notdef" 
d="M206 400v100h100v-100h-100z" />
    <glyph glyph-name=".notdef" 
d="M206 400v100h100v-100h-100z" />
    <glyph glyph-name=".notdef" 
d="M206 400v100h100v-100h-100z" />
    <glyph glyph-name=".notdef" 
d="M206 400v100h100v-100h-100z" />
    <glyph glyph-name=".notdef" 
d="M206 400v100h100v-100h-100z" />
    <glyph glyph-name=".notdef" 
d="M206 400v100h100v-100h-100z" />
    <glyph glyph-name="glyph1" horiz-adv-x="0" 
 />
    <glyph glyph-name="space" unicode=" " 
 />
    <glyph glyph-name="exclam" unicode="!" horiz-adv-x="1024" 
d="M226 181q0 49 84 84t201 35t201 -35t84 -84v-13q99 -45 99 -105q0 -63 -113.5 -108.5t-270.5 -45.5q-159 0 -270 45.5t-111 108.5q0 60 96 105v13zM261 190q0 -37 73.5 -64.5t176.5 -27.5t176 27.5t73 64.5q0 38 -73 64t-176 26t-176.5 -26t-73.5 -64zM712 99
q-84 -36 -201 -36t-202 36q-29 12 -48 25v-1q0 -37 73.5 -64t176.5 -27t176 27t73 64v1q-18 -13 -48 -25zM796 115q0 -47 -84 -82t-201 -35t-201 35t-84 82v23q-49 -28 -49 -62q0 -53 98 -88t236 -35q136 0 235 35t99 88q0 34 -49 61v-22zM272 592q0 98 70.5 169t169.5 71
q98 0 169 -71t71 -169q0 -99 -71 -169.5t-169 -70.5q-99 0 -169.5 70.5t-70.5 169.5zM336 592q0 -73 51.5 -124.5t124.5 -51.5q72 0 124 51.5t52 124.5q0 72 -52 124t-124 52q-73 0 -124.5 -52t-51.5 -124z" />
    <glyph glyph-name="quotedbl" unicode="&#x22;" horiz-adv-x="1024" 
d="M226 181q0 49 84 84t201 35t201 -35t84 -84v-13q99 -45 99 -105q0 -63 -113.5 -108.5t-270.5 -45.5q-159 0 -270 45.5t-111 108.5q0 60 96 105v13zM261 190q0 -37 73.5 -64.5t176.5 -27.5t176 27.5t73 64.5q0 38 -73 64t-176 26t-176.5 -26t-73.5 -64zM712 99
q-84 -36 -201 -36t-202 36q-29 12 -48 25v-1q0 -37 73.5 -64t176.5 -27t176 27t73 64v1q-18 -13 -48 -25zM796 115q0 -47 -84 -82t-201 -35t-201 35t-84 82v23q-49 -28 -49 -62q0 -53 98 -88t236 -35q136 0 235 35t99 88q0 34 -49 61v-22zM683 388l-171 171l-171 -171
l-45 45l171 171l-170 170l45 45l170 -170l170 170l45 -45l-170 -170l171 -171z" />
    <glyph glyph-name="numbersign" unicode="#" horiz-adv-x="1024" 
d="M782 388h-540l270 453zM512 728l-170 -285h337zM226 181q0 49 84 84t201 35t201 -35t84 -84v-13q99 -45 99 -105q0 -63 -113.5 -108.5t-270.5 -45.5q-159 0 -270 45.5t-111 108.5q0 60 96 105v13zM261 190q0 -37 73.5 -64.5t176.5 -27.5t176 27.5t73 64.5q0 38 -73 64
t-176 26t-176.5 -26t-73.5 -64zM712 99q-84 -36 -201 -36t-202 36q-29 12 -48 25v-1q0 -37 73.5 -64t176.5 -27t176 27t73 64v1q-18 -13 -48 -25zM796 115q0 -47 -84 -82t-201 -35t-201 35t-84 82v23q-49 -28 -49 -62q0 -53 98 -88t236 -35q136 0 235 35t99 88q0 34 -49 61
v-22z" />
    <glyph glyph-name="dollar" unicode="$" horiz-adv-x="1024" 
d="M226 181q0 49 84 84t201 35t201 -35t84 -84v-13q99 -45 99 -105q0 -63 -113.5 -108.5t-270.5 -45.5q-159 0 -270 45.5t-111 108.5q0 60 96 105v13zM261 190q0 -37 73.5 -64.5t176.5 -27.5t176 27.5t73 64.5q0 38 -73 64t-176 26t-176.5 -26t-73.5 -64zM712 99
q-84 -36 -201 -36t-202 36q-29 12 -48 25v-1q0 -37 73.5 -64t176.5 -27t176 27t73 64v1q-18 -13 -48 -25zM796 115q0 -47 -84 -82t-201 -35t-201 35t-84 82v23q-49 -28 -49 -62q0 -53 98 -88t236 -35q136 0 235 35t99 88q0 34 -49 61v-22zM288 368v448h448v-448h-448z
M352 432h320v320h-320v-320z" />
    <glyph glyph-name="percent" unicode="%" horiz-adv-x="1024" 
d="M0 256q0 65 47 112.5t113 47.5h704q65 0 112.5 -47.5t47.5 -112.5q0 -66 -47.5 -113t-112.5 -47h-704q-66 0 -113 47t-47 113zM32 256q0 -53 37.5 -90.5t90.5 -37.5h704q52 0 90 37.5t38 90.5q0 52 -38 90t-90 38h-704q-53 0 -90.5 -38t-37.5 -90z" />
    <glyph glyph-name="ampersand" unicode="&#x26;" horiz-adv-x="1024" 
d="M480 64v288h-288v64h288v288h64v-288h288v-64h-288v-288h-64z" />
    <glyph glyph-name="quotesingle" unicode="'" horiz-adv-x="1024" 
d="M115 301q0 107 64.5 184.5t152.5 77.5t153 -77.5t65 -184.5q0 -109 -65 -185t-153 -76t-152.5 76t-64.5 185zM189 300q0 -81 42 -139t101 -58t101 58t42 139q0 80 -42 138.5t-101 58.5t-101 -58.5t-42 -138.5zM663 40v514h72v-67l22 25q48 48 117 49h36v-79q-61 1 -89 -8
q-45 -15 -69 -49q-13 -18 -17 -35v-350h-72z" />
    <glyph glyph-name="parenleft" unicode="(" horiz-adv-x="1024" 
d="M96 224q-26 0 -45 19t-19 45v96q0 26 19 45t45 19h896v-224h-896zM317 864h43v-312h175v-39h-218v351zM96 -64q-26 0 -45 19t-19 45v96q0 26 19 45t45 19h896v-224h-896zM64 0q0 -13 9.5 -22.5t22.5 -9.5h864v160h-864q-13 0 -22.5 -9.5t-9.5 -22.5v-96zM664 513v277h-69
v33q61 0 73 41h40v-351h-44z" />
    <glyph glyph-name="parenright" unicode=")" horiz-adv-x="1024" 
d="M96 224q-26 0 -45 19t-19 45v96q0 26 19 45t45 19h896v-224h-896zM64 288q0 -13 9.5 -22.5t22.5 -9.5h864v160h-864q-13 0 -22.5 -9.5t-9.5 -22.5v-96zM265 864h43v-312h175v-39h-218v351zM96 -64q-26 0 -45 19t-19 45v96q0 26 19 45t45 19h896v-224h-896zM543 513v62
q0 56 39 96q34 35 80 39q23 4 37 18q17 16 17 38t-16.5 38.5t-48.5 16.5q-27 0 -46 -19q-19 -20 -19 -47v-7h-43v7q0 45 31.5 78t76.5 33q50 0 79 -30q30 -29 30 -70q0 -40 -30 -68q-27 -27 -68 -31q-29 -5 -49 -27q-27 -27 -27 -65v-20h174v-42h-217z" />
    <glyph glyph-name="asterisk" unicode="*" horiz-adv-x="1024" 
d="M63 264q0 58 41 99.5t100 41.5q58 0 99.5 -41.5t41.5 -99.5q0 -59 -41.5 -100t-99.5 -41q-59 0 -100 41t-41 100zM77 264q0 -52 37.5 -89t89.5 -37q51 0 88.5 37t37.5 89q0 50 -37.5 88t-88.5 38q-52 0 -89.5 -38t-37.5 -88zM89 264q0 45 33 79t82 34q44 0 78.5 -34
t34.5 -79q0 -50 -34.5 -81t-78.5 -31q-49 0 -82 31t-33 81zM382 468q0 48 33.5 81.5t80.5 33.5t81 -33.5t34 -81.5q0 -46 -34 -80t-81 -34t-80.5 34t-33.5 80zM355 468q0 59 41.5 102t99.5 43q59 0 101 -43t42 -102q0 -58 -42 -99.5t-101 -41.5q-58 0 -99.5 41.5t-41.5 99.5
zM370 468q0 -51 37 -88.5t89 -37.5t89 37.5t37 88.5q0 54 -37 90.5t-89 36.5t-89 -36.5t-37 -90.5zM703 500q0 48 33.5 81.5t80.5 33.5t80.5 -33.5t33.5 -81.5q0 -46 -33.5 -80t-80.5 -34t-80.5 34t-33.5 80zM675 500q0 59 41.5 102t100.5 43q58 0 101 -43t43 -102
q0 -58 -43 -99.5t-101 -41.5q-59 0 -100.5 41.5t-41.5 99.5zM690 500q0 -51 37.5 -88.5t89.5 -37.5t89 37.5t37 88.5q0 54 -37 90.5t-89 36.5t-89.5 -36.5t-37.5 -90.5z" />
    <glyph glyph-name="plus" unicode="+" horiz-adv-x="1024" 
d="M63 264q0 58 41 99.5t100 41.5q58 0 99.5 -41.5t41.5 -99.5q0 -59 -41.5 -100t-99.5 -41q-59 0 -100 41t-41 100zM77 264q0 -52 37.5 -89t89.5 -37q51 0 88.5 37t37.5 89q0 50 -37.5 88t-88.5 38q-52 0 -89.5 -38t-37.5 -88zM89 264q0 45 33 79t82 34q44 0 78.5 -34
t34.5 -79q0 -50 -34.5 -81t-78.5 -31q-49 0 -82 31t-33 81zM382 468q0 48 33.5 81.5t80.5 33.5t81 -33.5t34 -81.5q0 -46 -34 -80t-81 -34t-80.5 34t-33.5 80zM404 468q0 -37 27.5 -64t64.5 -27q38 0 65.5 27t27.5 64q0 38 -27.5 65t-65.5 27q-37 0 -64.5 -27t-27.5 -65z
M355 468q0 59 41.5 102t99.5 43q59 0 101 -43t42 -102q0 -58 -42 -99.5t-101 -41.5q-58 0 -99.5 41.5t-41.5 99.5zM370 468q0 -51 37 -88.5t89 -37.5t89 37.5t37 88.5q0 54 -37 90.5t-89 36.5t-89 -36.5t-37 -90.5zM703 500q0 48 33.5 81.5t80.5 33.5t80.5 -33.5t33.5 -81.5
q0 -46 -33.5 -80t-80.5 -34t-80.5 34t-33.5 80zM675 500q0 59 41.5 102t100.5 43q58 0 101 -43t43 -102q0 -58 -43 -99.5t-101 -41.5q-59 0 -100.5 41.5t-41.5 99.5zM690 500q0 -51 37.5 -88.5t89.5 -37.5t89 37.5t37 88.5q0 54 -37 90.5t-89 36.5t-89.5 -36.5t-37.5 -90.5z
" />
    <glyph glyph-name="comma" unicode="," horiz-adv-x="1024" 
d="M28 248q0 50 34.5 85.5t84.5 35.5t85.5 -35.5t35.5 -85.5t-35.5 -84.5t-85.5 -34.5t-84.5 34.5t-34.5 84.5zM38 248q0 -44 32.5 -76t76.5 -32t76 32t32 76t-32 76t-76 32t-76.5 -32t-32.5 -76zM49 248q0 39 28.5 68t69.5 29q38 0 67.5 -29t29.5 -68q0 -42 -29.5 -69
t-67.5 -27q-41 0 -69.5 27t-28.5 69zM252 422q0 42 29 70.5t68 28.5q40 0 69.5 -28.5t29.5 -70.5q0 -39 -29.5 -68t-69.5 -29q-39 0 -68 29t-29 68zM270 422q0 -31 23.5 -54t55.5 -23t55.5 23t23.5 54q0 33 -23.5 56.5t-55.5 23.5t-55.5 -23.5t-23.5 -56.5zM229 422
q0 51 35.5 87.5t84.5 36.5q51 0 87 -36.5t36 -87.5q0 -49 -36 -84t-87 -35q-49 0 -84.5 35t-35.5 84zM242 422q0 -43 31.5 -74.5t75.5 -31.5t76 31.5t32 74.5q0 47 -32 78t-76 31t-75.5 -31t-31.5 -78zM510 514q0 41 29 69.5t68 28.5q41 0 69.5 -28.5t28.5 -69.5
q0 -40 -28.5 -68.5t-69.5 -28.5q-39 0 -68 28.5t-29 68.5zM529 514q0 -31 23.5 -54.5t54.5 -23.5q33 0 56 23.5t23 54.5q0 32 -23 55.5t-56 23.5q-31 0 -54.5 -23.5t-23.5 -55.5zM486 514q0 51 35.5 88t85.5 37t87.5 -37t37.5 -88q0 -50 -37.5 -85t-87.5 -35t-85.5 35
t-35.5 85zM499 514q0 -43 32.5 -75t75.5 -32q45 0 76.5 32t31.5 75q0 46 -31.5 77t-76.5 31q-43 0 -75.5 -31t-32.5 -77zM774 434q0 41 29 69.5t68 28.5q41 0 69.5 -28.5t28.5 -69.5q0 -40 -28.5 -68.5t-69.5 -28.5q-39 0 -68 28.5t-29 68.5zM750 434q0 51 35.5 88t85.5 37
t87.5 -37t37.5 -88q0 -50 -37.5 -85t-87.5 -35t-85.5 35t-35.5 85zM763 434q0 -43 32.5 -75t75.5 -32q45 0 76.5 32t31.5 75q0 46 -31.5 77t-76.5 31q-43 0 -75.5 -31t-32.5 -77z" />
    <glyph glyph-name="hyphen" unicode="-" horiz-adv-x="1024" 
d="M928 128h-896v288h896q26 0 45 -19t19 -45v-160q0 -26 -19 -45t-45 -19zM960 192v160q0 13 -9.5 22.5t-22.5 9.5h-864v-224h864q13 0 22.5 9.5t9.5 22.5zM399 834h117q43 0 74 -30q31 -29 31 -70q0 -40 -31 -69q-13 -12 -27 -19l62 -165h-50l-58 155h-1h-73v-155h-44v353
zM443 792v-115h73q25 0 43 16q18 17 18 41q0 23 -18 40.5t-43 17.5h-73z" />
    <glyph glyph-name="period" unicode="." horiz-adv-x="1024" 
d="M28 248q0 50 34.5 85.5t84.5 35.5t85.5 -35.5t35.5 -85.5t-35.5 -84.5t-85.5 -34.5t-84.5 34.5t-34.5 84.5zM38 248q0 -44 32.5 -76t76.5 -32t76 32t32 76t-32 76t-76 32t-76.5 -32t-32.5 -76zM49 248q0 39 28.5 68t69.5 29q38 0 67.5 -29t29.5 -68q0 -42 -29.5 -69
t-67.5 -27q-41 0 -69.5 27t-28.5 69zM68 248q0 -32 23.5 -54t55.5 -22q31 0 55 22t24 54t-24 55t-55 23q-32 0 -55.5 -23t-23.5 -55zM252 422q0 42 29 70.5t68 28.5q40 0 69.5 -28.5t29.5 -70.5q0 -39 -29.5 -68t-69.5 -29q-39 0 -68 29t-29 68zM229 422q0 51 35.5 87.5
t84.5 36.5q51 0 87 -36.5t36 -87.5q0 -49 -36 -84t-87 -35q-49 0 -84.5 35t-35.5 84zM242 422q0 -43 31.5 -74.5t75.5 -31.5t76 31.5t32 74.5q0 47 -32 78t-76 31t-75.5 -31t-31.5 -78zM510 514q0 41 29 69.5t68 28.5q41 0 69.5 -28.5t28.5 -69.5q0 -40 -28.5 -68.5
t-69.5 -28.5q-39 0 -68 28.5t-29 68.5zM486 514q0 51 35.5 88t85.5 37t87.5 -37t37.5 -88q0 -50 -37.5 -85t-87.5 -35t-85.5 35t-35.5 85zM499 514q0 -43 32.5 -75t75.5 -32q45 0 76.5 32t31.5 75q0 46 -31.5 77t-76.5 31q-43 0 -75.5 -31t-32.5 -77zM774 434q0 41 29 69.5
t68 28.5q41 0 69.5 -28.5t28.5 -69.5q0 -40 -28.5 -68.5t-69.5 -28.5q-39 0 -68 28.5t-29 68.5zM793 434q0 -31 23.5 -54.5t54.5 -23.5q33 0 56 23.5t23 54.5q0 32 -23 55.5t-56 23.5q-31 0 -54.5 -23.5t-23.5 -55.5zM750 434q0 51 35.5 88t85.5 37t87.5 -37t37.5 -88
q0 -50 -37.5 -85t-87.5 -35t-85.5 35t-35.5 85zM763 434q0 -43 32.5 -75t75.5 -32q45 0 76.5 32t31.5 75q0 46 -31.5 77t-76.5 31q-43 0 -75.5 -31t-32.5 -77z" />
    <glyph glyph-name="slash" unicode="/" horiz-adv-x="1024" 
d="M28 248q0 50 34.5 85.5t84.5 35.5t85.5 -35.5t35.5 -85.5t-35.5 -84.5t-85.5 -34.5t-84.5 34.5t-34.5 84.5zM38 248q0 -44 32.5 -76t76.5 -32t76 32t32 76t-32 76t-76 32t-76.5 -32t-32.5 -76zM49 248q0 39 28.5 68t69.5 29q38 0 67.5 -29t29.5 -68q0 -42 -29.5 -69
t-67.5 -27q-41 0 -69.5 27t-28.5 69zM68 248q0 -32 23.5 -54t55.5 -22q31 0 55 22t24 54t-24 55t-55 23q-32 0 -55.5 -23t-23.5 -55zM252 422q0 42 29 70.5t68 28.5q40 0 69.5 -28.5t29.5 -70.5q0 -39 -29.5 -68t-69.5 -29q-39 0 -68 29t-29 68zM229 422q0 51 35.5 87.5
t84.5 36.5q51 0 87 -36.5t36 -87.5q0 -49 -36 -84t-87 -35q-49 0 -84.5 35t-35.5 84zM242 422q0 -43 31.5 -74.5t75.5 -31.5t76 31.5t32 74.5q0 47 -32 78t-76 31t-75.5 -31t-31.5 -78zM510 514q0 41 29 69.5t68 28.5q41 0 69.5 -28.5t28.5 -69.5q0 -40 -28.5 -68.5
t-69.5 -28.5q-39 0 -68 28.5t-29 68.5zM529 514q0 -31 23.5 -54.5t54.5 -23.5q33 0 56 23.5t23 54.5q0 32 -23 55.5t-56 23.5q-31 0 -54.5 -23.5t-23.5 -55.5zM486 514q0 51 35.5 88t85.5 37t87.5 -37t37.5 -88q0 -50 -37.5 -85t-87.5 -35t-85.5 35t-35.5 85zM499 514
q0 -43 32.5 -75t75.5 -32q45 0 76.5 32t31.5 75q0 46 -31.5 77t-76.5 31q-43 0 -75.5 -31t-32.5 -77zM774 434q0 41 29 69.5t68 28.5q41 0 69.5 -28.5t28.5 -69.5q0 -40 -28.5 -68.5t-69.5 -28.5q-39 0 -68 28.5t-29 68.5zM750 434q0 51 35.5 88t85.5 37t87.5 -37t37.5 -88
q0 -50 -37.5 -85t-87.5 -35t-85.5 35t-35.5 85zM763 434q0 -43 32.5 -75t75.5 -32q45 0 76.5 32t31.5 75q0 46 -31.5 77t-76.5 31q-43 0 -75.5 -31t-32.5 -77z" />
    <glyph glyph-name="zero" unicode="0" horiz-adv-x="1024" 
d="M928 224h-896v224h896q26 0 45 -19t19 -45v-96q0 -26 -19 -45t-45 -19zM928 -64h-896v224h896q26 0 45 -19t19 -45v-96q0 -26 -19 -45t-45 -19zM368 688v32h96v96h32v-96h96v-32h-96v-96h-32v96h-96zM42 833h84q31 0 54 -23q22 -21 22 -50t-22 -51q-10 -8 -20 -13
l44 -119h-35l-43 112v0h-53v-112h-31v256zM73 801v-83h53q18 0 31 12t13 30q0 17 -13 29t-31 12h-53zM280 577v200h-51v24q44 0 53 30h30v-254h-32zM626 833h84q31 0 55 -23q22 -21 22 -51q0 -28 -22 -50q-10 -9 -21 -14l45 -119h-36l-42 112h-1h-53v-112h-31v257zM657 801
v-83h53q18 0 31 12q14 12 14 29t-13.5 29.5t-31.5 12.5h-53zM823 576v44q0 41 28 70q25 25 59 28q17 4 26 13q13 12 13 28t-12 28.5t-35 12.5q-20 0 -34 -15q-13 -14 -13 -34v-4h-32v4q0 33 23 57.5t56 24.5q36 0 57 -23q23 -21 23 -51q0 -28 -23 -49q-19 -20 -49 -23
q-22 -3 -36 -19q-19 -20 -19 -48v-14h127v-30h-159z" />
    <glyph glyph-name="one" unicode="1" horiz-adv-x="1024" 
d="M226 181q0 49 84 84t201 35t201 -35t84 -84v-13q99 -45 99 -105q0 -63 -113.5 -108.5t-270.5 -45.5q-159 0 -270 45.5t-111 108.5q0 60 96 105v13zM261 190q0 -37 73.5 -64.5t176.5 -27.5t176 27.5t73 64.5q0 38 -73 64t-176 26t-176.5 -26t-73.5 -64zM712 99
q-84 -36 -201 -36t-202 36q-29 12 -48 25v-1q0 -37 73.5 -64t176.5 -27t176 27t73 64v1q-18 -13 -48 -25zM796 115q0 -47 -84 -82t-201 -35t-201 35t-84 82v23q-49 -28 -49 -62q0 -53 98 -88t236 -35q136 0 235 35t99 88q0 34 -49 61v-22zM355 353l124 479h66l125 -479h-67
l-30 119h-121l-30 -119h-67zM512 715l-47 -188h94z" />
    <glyph glyph-name="two" unicode="2" horiz-adv-x="1024" 
d="M226 181q0 49 84 84t201 35t201 -35t84 -84v-13q99 -45 99 -105q0 -63 -113.5 -108.5t-270.5 -45.5q-159 0 -270 45.5t-111 108.5q0 60 96 105v13zM261 190q0 -37 73.5 -64.5t176.5 -27.5t176 27.5t73 64.5q0 38 -73 64t-176 26t-176.5 -26t-73.5 -64zM712 99
q-84 -36 -201 -36t-202 36q-29 12 -48 25v-1q0 -37 73.5 -64t176.5 -27t176 27t73 64v1q-18 -13 -48 -25zM796 115q0 -47 -84 -82t-201 -35t-201 35t-84 82v23q-49 -28 -49 -62q0 -53 98 -88t236 -35q136 0 235 35t99 88q0 34 -49 61v-22zM360 353v479h176q49 0 84.5 -40
t35.5 -95q0 -56 -35 -95l-6 -7l13 -13q36 -40 36 -95q0 -56 -35.5 -95t-84.5 -39h-184zM536 620q25 0 42.5 22.5t17.5 54.5t-17.5 55t-42.5 23h-117v-155h117zM544 408q24 0 42 23t18 55t-18 55.5t-42 23.5h-125v-157h125z" />
    <glyph glyph-name="three" unicode="3" horiz-adv-x="1024" 
d="M226 181q0 49 84 84t201 35t201 -35t84 -84v-13q99 -45 99 -105q0 -63 -113.5 -108.5t-270.5 -45.5q-159 0 -270 45.5t-111 108.5q0 60 96 105v13zM261 190q0 -37 73.5 -64.5t176.5 -27.5t176 27.5t73 64.5q0 38 -73 64t-176 26t-176.5 -26t-73.5 -64zM712 99
q-84 -36 -201 -36t-202 36q-29 12 -48 25v-1q0 -37 73.5 -64t176.5 -27t176 27t73 64v1q-18 -13 -48 -25zM796 115q0 -47 -84 -82t-201 -35t-201 35t-84 82v23q-49 -28 -49 -62q0 -53 98 -88t236 -35q136 0 235 35t99 88q0 34 -49 61v-22zM603 663v31q0 37 -27 64
q-27 28 -64 28q-38 0 -65 -27.5t-27 -64.5v-200q0 -37 27 -64t65 -27q37 0 64 27t27 64v31h61v-28q0 -62 -45 -105q-45 -44 -107 -44q-63 0 -107.5 43.5t-44.5 105.5v195q0 61 44 106q45 45 108 45q62 0 107 -45t45 -106v-29h-61z" />
    <glyph glyph-name="four" unicode="4" horiz-adv-x="1024" 
d="M226 181q0 49 84 84t201 35t201 -35t84 -84v-13q99 -45 99 -105q0 -63 -113.5 -108.5t-270.5 -45.5q-159 0 -270 45.5t-111 108.5q0 60 96 105v13zM261 190q0 -37 73.5 -64.5t176.5 -27.5t176 27.5t73 64.5q0 38 -73 64t-176 26t-176.5 -26t-73.5 -64zM712 99
q-84 -36 -201 -36t-202 36q-29 12 -48 25v-1q0 -37 73.5 -64t176.5 -27t176 27t73 64v1q-18 -13 -48 -25zM796 115q0 -47 -84 -82t-201 -35t-201 35t-84 82v23q-49 -28 -49 -62q0 -53 98 -88t236 -35q136 0 235 35t99 88q0 34 -49 61v-22zM361 353v479h122q73 0 126 -54
q54 -53 54 -126v-120q0 -74 -54 -127q-53 -52 -126 -52h-122zM567 444q36 36 36 86v123q0 49 -36 85q-35 37 -84 37h-63v-367h63q49 0 84 36z" />
    <glyph glyph-name="five" unicode="5" horiz-adv-x="1024" 
d="M226 181q0 49 84 84t201 35t201 -35t84 -84v-13q99 -45 99 -105q0 -63 -113.5 -108.5t-270.5 -45.5q-159 0 -270 45.5t-111 108.5q0 60 96 105v13zM261 190q0 -37 73.5 -64.5t176.5 -27.5t176 27.5t73 64.5q0 38 -73 64t-176 26t-176.5 -26t-73.5 -64zM712 99
q-84 -36 -201 -36t-202 36q-29 12 -48 25v-1q0 -37 73.5 -64t176.5 -27t176 27t73 64v1q-18 -13 -48 -25zM796 115q0 -47 -84 -82t-201 -35t-201 35t-84 82v23q-49 -28 -49 -62q0 -53 98 -88t236 -35q136 0 235 35t99 88q0 34 -49 61v-22zM347 832h72l93 -179l93 179h73
l-133 -240l133 -239h-74l-92 178l-93 -178h-72l132 239z" />
    <glyph glyph-name="six" unicode="6" horiz-adv-x="1024" 
d="M226 181q0 49 84 84t201 35t201 -35t84 -84v-13q99 -45 99 -105q0 -63 -113.5 -108.5t-270.5 -45.5q-159 0 -270 45.5t-111 108.5q0 60 96 105v13zM261 190q0 -37 73.5 -64.5t176.5 -27.5t176 27.5t73 64.5q0 38 -73 64t-176 26t-176.5 -26t-73.5 -64zM712 99
q-84 -36 -201 -36t-202 36q-29 12 -48 25v-1q0 -37 73.5 -64t176.5 -27t176 27t73 64v1q-18 -13 -48 -25zM796 115q0 -47 -84 -82t-201 -35t-201 35t-84 82v23q-49 -28 -49 -62q0 -53 98 -88t236 -35q136 0 235 35t99 88q0 34 -49 61v-22zM347 832h70l95 -196l93 196h72
l-136 -264v-215h-59v215z" />
    <glyph glyph-name="seven" unicode="7" horiz-adv-x="1024" 
d="M226 181q0 49 84 84t201 35t201 -35t84 -84v-13q99 -45 99 -105q0 -63 -113.5 -108.5t-270.5 -45.5q-159 0 -270 45.5t-111 108.5q0 60 96 105v13zM261 190q0 -37 73.5 -64.5t176.5 -27.5t176 27.5t73 64.5q0 38 -73 64t-176 26t-176.5 -26t-73.5 -64zM712 99
q-84 -36 -201 -36t-202 36q-29 12 -48 25v-1q0 -37 73.5 -64t176.5 -27t176 27t73 64v1q-18 -13 -48 -25zM796 115q0 -47 -84 -82t-201 -35t-201 35t-84 82v23q-49 -28 -49 -62q0 -53 98 -88t236 -35q136 0 235 35t99 88q0 34 -49 61v-22zM362 777v55h300v-62l-232 -363h232
v-54h-300v61l231 363h-231z" />
    <glyph glyph-name="eight" unicode="8" horiz-adv-x="1024" 
d="M928 224h-896v224h896q26 0 45 -19t19 -45v-96q0 -26 -19 -45t-45 -19zM326 866h117q43 0 74 -30q31 -29 31 -70q0 -40 -31 -69q-13 -12 -27 -19l62 -165h-50l-58 155h-1h-73v-155h-44v353zM370 824v-115h73q25 0 43 16q18 17 18 41q0 23 -18 40.5t-43 17.5h-73zM928 -64
h-896v224h896q26 0 45 -19t19 -45v-96q0 -26 -19 -45t-45 -19zM960 0v96q0 13 -9.5 22.5t-22.5 9.5h-864v-160h864q13 0 22.5 9.5t9.5 22.5zM655 513v277h-69v33q61 0 73 41h40v-351h-44z" />
    <glyph glyph-name="nine" unicode="9" horiz-adv-x="1024" 
d="M928 224h-896v224h896q26 0 45 -19t19 -45v-96q0 -26 -19 -45t-45 -19zM960 288v96q0 13 -9.5 22.5t-22.5 9.5h-864v-160h864q13 0 22.5 9.5t9.5 22.5zM268 866h117q43 0 74 -30q31 -29 31 -70q0 -40 -31 -69q-13 -12 -27 -19l62 -165h-50l-58 155h-1h-73v-155h-44v353z
M312 824v-115h73q25 0 43 16q18 17 18 41q0 23 -18 40.5t-43 17.5h-73zM928 -64h-896v224h896q26 0 45 -19t19 -45v-96q0 -26 -19 -45t-45 -19zM540 513v62q0 56 39 96q34 35 80 39q23 4 37 18q17 16 17 38t-16.5 38.5t-48.5 16.5q-27 0 -46 -19q-19 -20 -19 -47v-7h-43v7
q0 45 31.5 78t76.5 33q50 0 79 -30q30 -29 30 -70q0 -40 -30 -68q-27 -27 -68 -31q-29 -5 -49 -27q-27 -27 -27 -65v-20h174v-42h-217z" />
    <glyph glyph-name="colon" unicode=":" horiz-adv-x="1024" 
d="M28 248q0 50 34.5 85.5t84.5 35.5t85.5 -35.5t35.5 -85.5t-35.5 -84.5t-85.5 -34.5t-84.5 34.5t-34.5 84.5zM38 248q0 -44 32.5 -76t76.5 -32t76 32t32 76t-32 76t-76 32t-76.5 -32t-32.5 -76zM49 248q0 39 28.5 68t69.5 29q38 0 67.5 -29t29.5 -68q0 -42 -29.5 -69
t-67.5 -27q-41 0 -69.5 27t-28.5 69zM252 422q0 42 29 70.5t68 28.5q40 0 69.5 -28.5t29.5 -70.5q0 -39 -29.5 -68t-69.5 -29q-39 0 -68 29t-29 68zM229 422q0 51 35.5 87.5t84.5 36.5q51 0 87 -36.5t36 -87.5q0 -49 -36 -84t-87 -35q-49 0 -84.5 35t-35.5 84zM242 422
q0 -43 31.5 -74.5t75.5 -31.5t76 31.5t32 74.5q0 47 -32 78t-76 31t-75.5 -31t-31.5 -78zM510 514q0 41 29 69.5t68 28.5q41 0 69.5 -28.5t28.5 -69.5q0 -40 -28.5 -68.5t-69.5 -28.5q-39 0 -68 28.5t-29 68.5zM529 514q0 -31 23.5 -54.5t54.5 -23.5q33 0 56 23.5t23 54.5
q0 32 -23 55.5t-56 23.5q-31 0 -54.5 -23.5t-23.5 -55.5zM486 514q0 51 35.5 88t85.5 37t87.5 -37t37.5 -88q0 -50 -37.5 -85t-87.5 -35t-85.5 35t-35.5 85zM499 514q0 -43 32.5 -75t75.5 -32q45 0 76.5 32t31.5 75q0 46 -31.5 77t-76.5 31q-43 0 -75.5 -31t-32.5 -77z
M774 434q0 41 29 69.5t68 28.5q41 0 69.5 -28.5t28.5 -69.5q0 -40 -28.5 -68.5t-69.5 -28.5q-39 0 -68 28.5t-29 68.5zM793 434q0 -31 23.5 -54.5t54.5 -23.5q33 0 56 23.5t23 54.5q0 32 -23 55.5t-56 23.5q-31 0 -54.5 -23.5t-23.5 -55.5zM750 434q0 51 35.5 88t85.5 37
t87.5 -37t37.5 -88q0 -50 -37.5 -85t-87.5 -35t-85.5 35t-35.5 85zM763 434q0 -43 32.5 -75t75.5 -32q45 0 76.5 32t31.5 75q0 46 -31.5 77t-76.5 31q-43 0 -75.5 -31t-32.5 -77z" />
    <glyph glyph-name="semicolon" unicode=";" horiz-adv-x="1024" 
d="M28 248q0 50 34.5 85.5t84.5 35.5t85.5 -35.5t35.5 -85.5t-35.5 -84.5t-85.5 -34.5t-84.5 34.5t-34.5 84.5zM38 248q0 -44 32.5 -76t76.5 -32t76 32t32 76t-32 76t-76 32t-76.5 -32t-32.5 -76zM49 248q0 39 28.5 68t69.5 29q38 0 67.5 -29t29.5 -68q0 -42 -29.5 -69
t-67.5 -27q-41 0 -69.5 27t-28.5 69zM68 248q0 -32 23.5 -54t55.5 -22q31 0 55 22t24 54t-24 55t-55 23q-32 0 -55.5 -23t-23.5 -55zM252 422q0 42 29 70.5t68 28.5q40 0 69.5 -28.5t29.5 -70.5q0 -39 -29.5 -68t-69.5 -29q-39 0 -68 29t-29 68zM270 422q0 -31 23.5 -54
t55.5 -23t55.5 23t23.5 54q0 33 -23.5 56.5t-55.5 23.5t-55.5 -23.5t-23.5 -56.5zM229 422q0 51 35.5 87.5t84.5 36.5q51 0 87 -36.5t36 -87.5q0 -49 -36 -84t-87 -35q-49 0 -84.5 35t-35.5 84zM242 422q0 -43 31.5 -74.5t75.5 -31.5t76 31.5t32 74.5q0 47 -32 78t-76 31
t-75.5 -31t-31.5 -78zM510 514q0 41 29 69.5t68 28.5q41 0 69.5 -28.5t28.5 -69.5q0 -40 -28.5 -68.5t-69.5 -28.5q-39 0 -68 28.5t-29 68.5zM529 514q0 -31 23.5 -54.5t54.5 -23.5q33 0 56 23.5t23 54.5q0 32 -23 55.5t-56 23.5q-31 0 -54.5 -23.5t-23.5 -55.5zM486 514
q0 51 35.5 88t85.5 37t87.5 -37t37.5 -88q0 -50 -37.5 -85t-87.5 -35t-85.5 35t-35.5 85zM499 514q0 -43 32.5 -75t75.5 -32q45 0 76.5 32t31.5 75q0 46 -31.5 77t-76.5 31q-43 0 -75.5 -31t-32.5 -77zM774 434q0 41 29 69.5t68 28.5q41 0 69.5 -28.5t28.5 -69.5
q0 -40 -28.5 -68.5t-69.5 -28.5q-39 0 -68 28.5t-29 68.5zM750 434q0 51 35.5 88t85.5 37t87.5 -37t37.5 -88q0 -50 -37.5 -85t-87.5 -35t-85.5 35t-35.5 85zM763 434q0 -43 32.5 -75t75.5 -32q45 0 76.5 32t31.5 75q0 46 -31.5 77t-76.5 31q-43 0 -75.5 -31t-32.5 -77z" />
    <glyph glyph-name="less" unicode="&#x3c;" horiz-adv-x="1024" 
d="M28 248q0 50 34.5 85.5t84.5 35.5t85.5 -35.5t35.5 -85.5t-35.5 -84.5t-85.5 -34.5t-84.5 34.5t-34.5 84.5zM38 248q0 -44 32.5 -76t76.5 -32t76 32t32 76t-32 76t-76 32t-76.5 -32t-32.5 -76zM49 248q0 39 28.5 68t69.5 29q38 0 67.5 -29t29.5 -68q0 -42 -29.5 -69
t-67.5 -27q-41 0 -69.5 27t-28.5 69zM252 422q0 42 29 70.5t68 28.5q40 0 69.5 -28.5t29.5 -70.5q0 -39 -29.5 -68t-69.5 -29q-39 0 -68 29t-29 68zM229 422q0 51 35.5 87.5t84.5 36.5q51 0 87 -36.5t36 -87.5q0 -49 -36 -84t-87 -35q-49 0 -84.5 35t-35.5 84zM242 422
q0 -43 31.5 -74.5t75.5 -31.5t76 31.5t32 74.5q0 47 -32 78t-76 31t-75.5 -31t-31.5 -78zM510 514q0 41 29 69.5t68 28.5q41 0 69.5 -28.5t28.5 -69.5q0 -40 -28.5 -68.5t-69.5 -28.5q-39 0 -68 28.5t-29 68.5zM486 514q0 51 35.5 88t85.5 37t87.5 -37t37.5 -88
q0 -50 -37.5 -85t-87.5 -35t-85.5 35t-35.5 85zM499 514q0 -43 32.5 -75t75.5 -32q45 0 76.5 32t31.5 75q0 46 -31.5 77t-76.5 31q-43 0 -75.5 -31t-32.5 -77zM774 434q0 41 29 69.5t68 28.5q41 0 69.5 -28.5t28.5 -69.5q0 -40 -28.5 -68.5t-69.5 -28.5q-39 0 -68 28.5
t-29 68.5zM793 434q0 -31 23.5 -54.5t54.5 -23.5q33 0 56 23.5t23 54.5q0 32 -23 55.5t-56 23.5q-31 0 -54.5 -23.5t-23.5 -55.5zM750 434q0 51 35.5 88t85.5 37t87.5 -37t37.5 -88q0 -50 -37.5 -85t-87.5 -35t-85.5 35t-35.5 85zM763 434q0 -43 32.5 -75t75.5 -32
q45 0 76.5 32t31.5 75q0 46 -31.5 77t-76.5 31q-43 0 -75.5 -31t-32.5 -77z" />
    <glyph glyph-name="equal" unicode="=" horiz-adv-x="1024" 
d="M96 224q-26 0 -45 19t-19 45v96q0 26 19 45t45 19h896v-224h-896zM96 -64q-26 0 -45 19t-19 45v96q0 26 19 45t45 19h896v-224h-896zM41 830h30v-226h128v-28h-158v254zM278 576v200h-50v24q44 0 53 30h29v-254h-32zM645 830h32v-226h127v-28h-159v254zM824 576v44
q0 41 28 69q25 26 59 29q17 3 27 13q12 11 12 27q0 17 -12 29t-35 12q-20 0 -34 -14q-13 -14 -13 -35v-4h-32v4q0 33 23 57.5t56 24.5q36 0 57 -23q23 -21 23 -51q0 -28 -23 -48q-19 -21 -49 -23q-22 -4 -36 -20q-19 -19 -19 -47v-15h127v-29h-159zM367 688v32h96v96h32v-96
h96v-32h-96v-96h-32v96h-96z" />
    <glyph glyph-name="greater" unicode="&#x3e;" horiz-adv-x="1024" 
d="M28 248q0 50 34.5 85.5t84.5 35.5t85.5 -35.5t35.5 -85.5t-35.5 -84.5t-85.5 -34.5t-84.5 34.5t-34.5 84.5zM38 248q0 -44 32.5 -76t76.5 -32t76 32t32 76t-32 76t-76 32t-76.5 -32t-32.5 -76zM49 248q0 39 28.5 68t69.5 29q38 0 67.5 -29t29.5 -68q0 -42 -29.5 -69
t-67.5 -27q-41 0 -69.5 27t-28.5 69zM68 248q0 -32 23.5 -54t55.5 -22q31 0 55 22t24 54t-24 55t-55 23q-32 0 -55.5 -23t-23.5 -55zM252 422q0 42 29 70.5t68 28.5q40 0 69.5 -28.5t29.5 -70.5q0 -39 -29.5 -68t-69.5 -29q-39 0 -68 29t-29 68zM229 422q0 51 35.5 87.5
t84.5 36.5q51 0 87 -36.5t36 -87.5q0 -49 -36 -84t-87 -35q-49 0 -84.5 35t-35.5 84zM242 422q0 -43 31.5 -74.5t75.5 -31.5t76 31.5t32 74.5q0 47 -32 78t-76 31t-75.5 -31t-31.5 -78zM510 514q0 41 29 69.5t68 28.5q41 0 69.5 -28.5t28.5 -69.5q0 -40 -28.5 -68.5
t-69.5 -28.5q-39 0 -68 28.5t-29 68.5zM486 514q0 51 35.5 88t85.5 37t87.5 -37t37.5 -88q0 -50 -37.5 -85t-87.5 -35t-85.5 35t-35.5 85zM499 514q0 -43 32.5 -75t75.5 -32q45 0 76.5 32t31.5 75q0 46 -31.5 77t-76.5 31q-43 0 -75.5 -31t-32.5 -77zM774 434q0 41 29 69.5
t68 28.5q41 0 69.5 -28.5t28.5 -69.5q0 -40 -28.5 -68.5t-69.5 -28.5q-39 0 -68 28.5t-29 68.5zM750 434q0 51 35.5 88t85.5 37t87.5 -37t37.5 -88q0 -50 -37.5 -85t-87.5 -35t-85.5 35t-35.5 85zM763 434q0 -43 32.5 -75t75.5 -32q45 0 76.5 32t31.5 75q0 46 -31.5 77
t-76.5 31q-43 0 -75.5 -31t-32.5 -77z" />
    <glyph glyph-name="question" unicode="?" horiz-adv-x="1024" 
d="M28 248q0 50 34.5 85.5t84.5 35.5t85.5 -35.5t35.5 -85.5t-35.5 -84.5t-85.5 -34.5t-84.5 34.5t-34.5 84.5zM38 248q0 -44 32.5 -76t76.5 -32t76 32t32 76t-32 76t-76 32t-76.5 -32t-32.5 -76zM49 248q0 39 28.5 68t69.5 29q38 0 67.5 -29t29.5 -68q0 -42 -29.5 -69
t-67.5 -27q-41 0 -69.5 27t-28.5 69zM252 422q0 42 29 70.5t68 28.5q40 0 69.5 -28.5t29.5 -70.5q0 -39 -29.5 -68t-69.5 -29q-39 0 -68 29t-29 68zM229 422q0 51 35.5 87.5t84.5 36.5q51 0 87 -36.5t36 -87.5q0 -49 -36 -84t-87 -35q-49 0 -84.5 35t-35.5 84zM242 422
q0 -43 31.5 -74.5t75.5 -31.5t76 31.5t32 74.5q0 47 -32 78t-76 31t-75.5 -31t-31.5 -78zM510 514q0 41 29 69.5t68 28.5q41 0 69.5 -28.5t28.5 -69.5q0 -40 -28.5 -68.5t-69.5 -28.5q-39 0 -68 28.5t-29 68.5zM486 514q0 51 35.5 88t85.5 37t87.5 -37t37.5 -88
q0 -50 -37.5 -85t-87.5 -35t-85.5 35t-35.5 85zM499 514q0 -43 32.5 -75t75.5 -32q45 0 76.5 32t31.5 75q0 46 -31.5 77t-76.5 31q-43 0 -75.5 -31t-32.5 -77zM774 434q0 41 29 69.5t68 28.5q41 0 69.5 -28.5t28.5 -69.5q0 -40 -28.5 -68.5t-69.5 -28.5q-39 0 -68 28.5
t-29 68.5zM750 434q0 51 35.5 88t85.5 37t87.5 -37t37.5 -88q0 -50 -37.5 -85t-87.5 -35t-85.5 35t-35.5 85zM763 434q0 -43 32.5 -75t75.5 -32q45 0 76.5 32t31.5 75q0 46 -31.5 77t-76.5 31q-43 0 -75.5 -31t-32.5 -77z" />
    <glyph glyph-name="at" unicode="@" horiz-adv-x="1024" 
d="M28 248q0 50 34.5 85.5t84.5 35.5t85.5 -35.5t35.5 -85.5t-35.5 -84.5t-85.5 -34.5t-84.5 34.5t-34.5 84.5zM38 248q0 -44 32.5 -76t76.5 -32t76 32t32 76t-32 76t-76 32t-76.5 -32t-32.5 -76zM49 248q0 39 28.5 68t69.5 29q38 0 67.5 -29t29.5 -68q0 -42 -29.5 -69
t-67.5 -27q-41 0 -69.5 27t-28.5 69zM68 248q0 -32 23.5 -54t55.5 -22q31 0 55 22t24 54t-24 55t-55 23q-32 0 -55.5 -23t-23.5 -55zM252 422q0 42 29 70.5t68 28.5q40 0 69.5 -28.5t29.5 -70.5q0 -39 -29.5 -68t-69.5 -29q-39 0 -68 29t-29 68zM229 422q0 51 35.5 87.5
t84.5 36.5q51 0 87 -36.5t36 -87.5q0 -49 -36 -84t-87 -35q-49 0 -84.5 35t-35.5 84zM242 422q0 -43 31.5 -74.5t75.5 -31.5t76 31.5t32 74.5q0 47 -32 78t-76 31t-75.5 -31t-31.5 -78zM510 514q0 41 29 69.5t68 28.5q41 0 69.5 -28.5t28.5 -69.5q0 -40 -28.5 -68.5
t-69.5 -28.5q-39 0 -68 28.5t-29 68.5zM529 514q0 -31 23.5 -54.5t54.5 -23.5q33 0 56 23.5t23 54.5q0 32 -23 55.5t-56 23.5q-31 0 -54.5 -23.5t-23.5 -55.5zM486 514q0 51 35.5 88t85.5 37t87.5 -37t37.5 -88q0 -50 -37.5 -85t-87.5 -35t-85.5 35t-35.5 85zM499 514
q0 -43 32.5 -75t75.5 -32q45 0 76.5 32t31.5 75q0 46 -31.5 77t-76.5 31q-43 0 -75.5 -31t-32.5 -77zM774 434q0 41 29 69.5t68 28.5q41 0 69.5 -28.5t28.5 -69.5q0 -40 -28.5 -68.5t-69.5 -28.5q-39 0 -68 28.5t-29 68.5zM793 434q0 -31 23.5 -54.5t54.5 -23.5
q33 0 56 23.5t23 54.5q0 32 -23 55.5t-56 23.5q-31 0 -54.5 -23.5t-23.5 -55.5zM750 434q0 51 35.5 88t85.5 37t87.5 -37t37.5 -88q0 -50 -37.5 -85t-87.5 -35t-85.5 35t-35.5 85zM763 434q0 -43 32.5 -75t75.5 -32q45 0 76.5 32t31.5 75q0 46 -31.5 77t-76.5 31
q-43 0 -75.5 -31t-32.5 -77z" />
    <glyph glyph-name="A" unicode="A" horiz-adv-x="1024" 
d="M500 693v-176h333v-265h-333v-176l-308 308z" />
    <glyph glyph-name="B" unicode="B" horiz-adv-x="1024" 
d="M32 494q0 58 41 99.5t100 41.5q58 0 99.5 -41.5t41.5 -99.5q0 -59 -41.5 -100t-99.5 -41q-59 0 -100 41t-41 100zM46 494q0 -52 37.5 -89t89.5 -37q51 0 88.5 37t37.5 89q0 50 -37.5 88t-88.5 38q-52 0 -89.5 -38t-37.5 -88zM58 494q0 45 33 79t82 34q44 0 78.5 -34
t34.5 -79q0 -50 -34.5 -81t-78.5 -31q-49 0 -82 31t-33 81zM80 494q0 -39 27 -64.5t66 -25.5q36 0 63.5 25.5t27.5 64.5q0 36 -27.5 63.5t-63.5 27.5q-39 0 -66 -27.5t-27 -63.5zM351 602q0 48 33.5 81.5t80.5 33.5t81 -33.5t34 -81.5q0 -46 -34 -80t-81 -34t-80.5 34
t-33.5 80zM324 602q0 59 41.5 102t99.5 43q59 0 101 -43t42 -102q0 -58 -42 -99.5t-101 -41.5q-58 0 -99.5 41.5t-41.5 99.5zM339 602q0 -51 37 -88.5t89 -37.5t89 37.5t37 88.5q0 54 -37 90.5t-89 36.5t-89 -36.5t-37 -90.5zM120 162q0 45 33 79t82 34q44 0 78.5 -34
t34.5 -79q0 -50 -34.5 -81t-78.5 -31q-49 0 -82 31t-33 81zM142 162q0 -39 27 -64.5t66 -25.5q36 0 63.5 25.5t27.5 64.5q0 36 -27.5 63.5t-63.5 27.5q-39 0 -66 -27.5t-27 -63.5zM92 162q0 58 42 99.5t101 41.5q58 0 99.5 -41.5t41.5 -99.5q0 -59 -41.5 -100t-99.5 -41
q-59 0 -101 41t-42 100zM107 162q0 -53 37.5 -88.5t90.5 -35.5q51 0 88.5 35.5t37.5 88.5q0 50 -37.5 87.5t-88.5 37.5q-53 0 -90.5 -37.5t-37.5 -87.5zM413 270q0 47 33.5 80.5t80.5 33.5t81 -33.5t34 -80.5q0 -46 -34 -80t-81 -34t-80.5 34t-33.5 80zM386 270
q0 59 41.5 101t99.5 42q59 0 101 -42t42 -101q0 -58 -42 -99.5t-101 -41.5q-58 0 -99.5 41.5t-41.5 99.5zM401 270q0 -51 37 -89t89 -38t89 38t37 89q0 52 -37 89.5t-89 37.5t-89 -37.5t-37 -89.5zM672 602q0 48 33.5 81.5t80.5 33.5t80.5 -33.5t33.5 -81.5q0 -46 -33.5 -80
t-80.5 -34t-80.5 34t-33.5 80zM694 602q0 -37 27.5 -64t64.5 -27q38 0 64.5 27t26.5 64q0 38 -26.5 65t-64.5 27q-37 0 -64.5 -27t-27.5 -65zM644 602q0 59 41.5 102t100.5 43q58 0 101 -43t43 -102q0 -58 -43 -99.5t-101 -41.5q-59 0 -100.5 41.5t-41.5 99.5zM659 602
q0 -51 37.5 -88.5t89.5 -37.5t89 37.5t37 88.5q0 54 -37 90.5t-89 36.5t-89.5 -36.5t-37.5 -90.5zM734 270q0 47 33.5 80.5t79.5 33.5q48 0 81 -33.5t33 -80.5q0 -46 -33 -80t-81 -34q-46 0 -79.5 34t-33.5 80zM756 270q0 -38 27 -65t64 -27q38 0 65 27t27 65t-27 65t-65 27
q-37 0 -64 -27t-27 -65zM706 270q0 59 41.5 101t99.5 42q59 0 102 -42t43 -101q0 -58 -43 -99.5t-102 -41.5q-58 0 -99.5 41.5t-41.5 99.5zM721 270q0 -51 37 -89t89 -38q53 0 90 38t37 89q0 52 -37 89.5t-90 37.5q-52 0 -89 -37.5t-37 -89.5z" />
    <glyph glyph-name="C" unicode="C" horiz-adv-x="1024" 
d="M349 111l124 123l-235 237l187 187l237 -235l124 124v-436h-437z" />
    <glyph glyph-name="D" unicode="D" horiz-adv-x="1024" 
d="M525 693l308 -309l-308 -308v176h-333v265h333v176z" />
    <glyph glyph-name="E" unicode="E" horiz-adv-x="1024" 
d="M349 658h437v-436l-124 124l-237 -235l-187 187l235 237z" />
    <glyph glyph-name="F" unicode="F" horiz-adv-x="1024" 
d="M32 494q0 58 41 99.5t100 41.5q58 0 99.5 -41.5t41.5 -99.5q0 -59 -41.5 -100t-99.5 -41q-59 0 -100 41t-41 100zM46 494q0 -52 37.5 -89t89.5 -37q51 0 88.5 37t37.5 89q0 50 -37.5 88t-88.5 38q-52 0 -89.5 -38t-37.5 -88zM58 494q0 45 33 79t82 34q44 0 78.5 -34
t34.5 -79q0 -50 -34.5 -81t-78.5 -31q-49 0 -82 31t-33 81zM80 494q0 -39 27 -64.5t66 -25.5q36 0 63.5 25.5t27.5 64.5q0 36 -27.5 63.5t-63.5 27.5q-39 0 -66 -27.5t-27 -63.5zM351 602q0 48 33.5 81.5t80.5 33.5t81 -33.5t34 -81.5q0 -46 -34 -80t-81 -34t-80.5 34
t-33.5 80zM373 602q0 -37 27.5 -64t64.5 -27q38 0 65.5 27t27.5 64q0 38 -27.5 65t-65.5 27q-37 0 -64.5 -27t-27.5 -65zM324 602q0 59 41.5 102t99.5 43q59 0 101 -43t42 -102q0 -58 -42 -99.5t-101 -41.5q-58 0 -99.5 41.5t-41.5 99.5zM339 602q0 -51 37 -88.5t89 -37.5
t89 37.5t37 88.5q0 54 -37 90.5t-89 36.5t-89 -36.5t-37 -90.5zM120 162q0 45 33 79t82 34q44 0 78.5 -34t34.5 -79q0 -50 -34.5 -81t-78.5 -31q-49 0 -82 31t-33 81zM92 162q0 58 42 99.5t101 41.5q58 0 99.5 -41.5t41.5 -99.5q0 -59 -41.5 -100t-99.5 -41q-59 0 -101 41
t-42 100zM107 162q0 -53 37.5 -88.5t90.5 -35.5q51 0 88.5 35.5t37.5 88.5q0 50 -37.5 87.5t-88.5 37.5q-53 0 -90.5 -37.5t-37.5 -87.5zM413 270q0 47 33.5 80.5t80.5 33.5t81 -33.5t34 -80.5q0 -46 -34 -80t-81 -34t-80.5 34t-33.5 80zM435 270q0 -38 27.5 -65t64.5 -27
q38 0 65.5 27t27.5 65t-27.5 65t-65.5 27q-37 0 -64.5 -27t-27.5 -65zM386 270q0 59 41.5 101t99.5 42q59 0 101 -42t42 -101q0 -58 -42 -99.5t-101 -41.5q-58 0 -99.5 41.5t-41.5 99.5zM401 270q0 -51 37 -89t89 -38t89 38t37 89q0 52 -37 89.5t-89 37.5t-89 -37.5
t-37 -89.5zM672 602q0 48 33.5 81.5t80.5 33.5t80.5 -33.5t33.5 -81.5q0 -46 -33.5 -80t-80.5 -34t-80.5 34t-33.5 80zM694 602q0 -37 27.5 -64t64.5 -27q38 0 64.5 27t26.5 64q0 38 -26.5 65t-64.5 27q-37 0 -64.5 -27t-27.5 -65zM644 602q0 59 41.5 102t100.5 43
q58 0 101 -43t43 -102q0 -58 -43 -99.5t-101 -41.5q-59 0 -100.5 41.5t-41.5 99.5zM659 602q0 -51 37.5 -88.5t89.5 -37.5t89 37.5t37 88.5q0 54 -37 90.5t-89 36.5t-89.5 -36.5t-37.5 -90.5zM734 270q0 47 33.5 80.5t79.5 33.5q48 0 81 -33.5t33 -80.5q0 -46 -33 -80
t-81 -34q-46 0 -79.5 34t-33.5 80zM756 270q0 -38 27 -65t64 -27q38 0 65 27t27 65t-27 65t-65 27q-37 0 -64 -27t-27 -65zM706 270q0 59 41.5 101t99.5 42q59 0 102 -42t43 -101q0 -58 -43 -99.5t-102 -41.5q-58 0 -99.5 41.5t-41.5 99.5zM721 270q0 -51 37 -89t89 -38
q53 0 90 38t37 89q0 52 -37 89.5t-90 37.5q-52 0 -89 -37.5t-37 -89.5z" />
    <glyph glyph-name="G" unicode="G" horiz-adv-x="1024" 
d="M32 494q0 58 41 99.5t100 41.5q58 0 99.5 -41.5t41.5 -99.5q0 -59 -41.5 -100t-99.5 -41q-59 0 -100 41t-41 100zM46 494q0 -52 37.5 -89t89.5 -37q51 0 88.5 37t37.5 89q0 50 -37.5 88t-88.5 38q-52 0 -89.5 -38t-37.5 -88zM58 494q0 45 33 79t82 34q44 0 78.5 -34
t34.5 -79q0 -50 -34.5 -81t-78.5 -31q-49 0 -82 31t-33 81zM80 494q0 -39 27 -64.5t66 -25.5q36 0 63.5 25.5t27.5 64.5q0 36 -27.5 63.5t-63.5 27.5q-39 0 -66 -27.5t-27 -63.5zM351 602q0 48 33.5 81.5t80.5 33.5t81 -33.5t34 -81.5q0 -46 -34 -80t-81 -34t-80.5 34
t-33.5 80zM373 602q0 -37 27.5 -64t64.5 -27q38 0 65.5 27t27.5 64q0 38 -27.5 65t-65.5 27q-37 0 -64.5 -27t-27.5 -65zM324 602q0 59 41.5 102t99.5 43q59 0 101 -43t42 -102q0 -58 -42 -99.5t-101 -41.5q-58 0 -99.5 41.5t-41.5 99.5zM339 602q0 -51 37 -88.5t89 -37.5
t89 37.5t37 88.5q0 54 -37 90.5t-89 36.5t-89 -36.5t-37 -90.5zM120 162q0 45 33 79t82 34q44 0 78.5 -34t34.5 -79q0 -50 -34.5 -81t-78.5 -31q-49 0 -82 31t-33 81zM142 162q0 -39 27 -64.5t66 -25.5q36 0 63.5 25.5t27.5 64.5q0 36 -27.5 63.5t-63.5 27.5
q-39 0 -66 -27.5t-27 -63.5zM92 162q0 58 42 99.5t101 41.5q58 0 99.5 -41.5t41.5 -99.5q0 -59 -41.5 -100t-99.5 -41q-59 0 -101 41t-42 100zM107 162q0 -53 37.5 -88.5t90.5 -35.5q51 0 88.5 35.5t37.5 88.5q0 50 -37.5 87.5t-88.5 37.5q-53 0 -90.5 -37.5t-37.5 -87.5z
M413 270q0 47 33.5 80.5t80.5 33.5t81 -33.5t34 -80.5q0 -46 -34 -80t-81 -34t-80.5 34t-33.5 80zM386 270q0 59 41.5 101t99.5 42q59 0 101 -42t42 -101q0 -58 -42 -99.5t-101 -41.5q-58 0 -99.5 41.5t-41.5 99.5zM401 270q0 -51 37 -89t89 -38t89 38t37 89q0 52 -37 89.5
t-89 37.5t-89 -37.5t-37 -89.5zM672 602q0 48 33.5 81.5t80.5 33.5t80.5 -33.5t33.5 -81.5q0 -46 -33.5 -80t-80.5 -34t-80.5 34t-33.5 80zM694 602q0 -37 27.5 -64t64.5 -27q38 0 64.5 27t26.5 64q0 38 -26.5 65t-64.5 27q-37 0 -64.5 -27t-27.5 -65zM644 602
q0 59 41.5 102t100.5 43q58 0 101 -43t43 -102q0 -58 -43 -99.5t-101 -41.5q-59 0 -100.5 41.5t-41.5 99.5zM659 602q0 -51 37.5 -88.5t89.5 -37.5t89 37.5t37 88.5q0 54 -37 90.5t-89 36.5t-89.5 -36.5t-37.5 -90.5zM734 270q0 47 33.5 80.5t79.5 33.5q48 0 81 -33.5
t33 -80.5q0 -46 -33 -80t-81 -34q-46 0 -79.5 34t-33.5 80zM756 270q0 -38 27 -65t64 -27q38 0 65 27t27 65t-27 65t-65 27q-37 0 -64 -27t-27 -65zM706 270q0 59 41.5 101t99.5 42q59 0 102 -42t43 -101q0 -58 -43 -99.5t-102 -41.5q-58 0 -99.5 41.5t-41.5 99.5zM721 270
q0 -51 37 -89t89 -38q53 0 90 38t37 89q0 52 -37 89.5t-90 37.5q-52 0 -89 -37.5t-37 -89.5z" />
    <glyph glyph-name="H" unicode="H" horiz-adv-x="1024" 
d="M32 494q0 58 41 99.5t100 41.5q58 0 99.5 -41.5t41.5 -99.5q0 -59 -41.5 -100t-99.5 -41q-59 0 -100 41t-41 100zM46 494q0 -52 37.5 -89t89.5 -37q51 0 88.5 37t37.5 89q0 50 -37.5 88t-88.5 38q-52 0 -89.5 -38t-37.5 -88zM58 494q0 45 33 79t82 34q44 0 78.5 -34
t34.5 -79q0 -50 -34.5 -81t-78.5 -31q-49 0 -82 31t-33 81zM80 494q0 -39 27 -64.5t66 -25.5q36 0 63.5 25.5t27.5 64.5q0 36 -27.5 63.5t-63.5 27.5q-39 0 -66 -27.5t-27 -63.5zM351 602q0 48 33.5 81.5t80.5 33.5t81 -33.5t34 -81.5q0 -46 -34 -80t-81 -34t-80.5 34
t-33.5 80zM373 602q0 -37 27.5 -64t64.5 -27q38 0 65.5 27t27.5 64q0 38 -27.5 65t-65.5 27q-37 0 -64.5 -27t-27.5 -65zM324 602q0 59 41.5 102t99.5 43q59 0 101 -43t42 -102q0 -58 -42 -99.5t-101 -41.5q-58 0 -99.5 41.5t-41.5 99.5zM339 602q0 -51 37 -88.5t89 -37.5
t89 37.5t37 88.5q0 54 -37 90.5t-89 36.5t-89 -36.5t-37 -90.5zM120 162q0 45 33 79t82 34q44 0 78.5 -34t34.5 -79q0 -50 -34.5 -81t-78.5 -31q-49 0 -82 31t-33 81zM142 162q0 -39 27 -64.5t66 -25.5q36 0 63.5 25.5t27.5 64.5q0 36 -27.5 63.5t-63.5 27.5
q-39 0 -66 -27.5t-27 -63.5zM92 162q0 58 42 99.5t101 41.5q58 0 99.5 -41.5t41.5 -99.5q0 -59 -41.5 -100t-99.5 -41q-59 0 -101 41t-42 100zM107 162q0 -53 37.5 -88.5t90.5 -35.5q51 0 88.5 35.5t37.5 88.5q0 50 -37.5 87.5t-88.5 37.5q-53 0 -90.5 -37.5t-37.5 -87.5z
M413 270q0 47 33.5 80.5t80.5 33.5t81 -33.5t34 -80.5q0 -46 -34 -80t-81 -34t-80.5 34t-33.5 80zM435 270q0 -38 27.5 -65t64.5 -27q38 0 65.5 27t27.5 65t-27.5 65t-65.5 27q-37 0 -64.5 -27t-27.5 -65zM386 270q0 59 41.5 101t99.5 42q59 0 101 -42t42 -101
q0 -58 -42 -99.5t-101 -41.5q-58 0 -99.5 41.5t-41.5 99.5zM401 270q0 -51 37 -89t89 -38t89 38t37 89q0 52 -37 89.5t-89 37.5t-89 -37.5t-37 -89.5zM672 602q0 48 33.5 81.5t80.5 33.5t80.5 -33.5t33.5 -81.5q0 -46 -33.5 -80t-80.5 -34t-80.5 34t-33.5 80zM694 602
q0 -37 27.5 -64t64.5 -27q38 0 64.5 27t26.5 64q0 38 -26.5 65t-64.5 27q-37 0 -64.5 -27t-27.5 -65zM644 602q0 59 41.5 102t100.5 43q58 0 101 -43t43 -102q0 -58 -43 -99.5t-101 -41.5q-59 0 -100.5 41.5t-41.5 99.5zM659 602q0 -51 37.5 -88.5t89.5 -37.5t89 37.5
t37 88.5q0 54 -37 90.5t-89 36.5t-89.5 -36.5t-37.5 -90.5zM734 270q0 47 33.5 80.5t79.5 33.5q48 0 81 -33.5t33 -80.5q0 -46 -33 -80t-81 -34q-46 0 -79.5 34t-33.5 80zM706 270q0 59 41.5 101t99.5 42q59 0 102 -42t43 -101q0 -58 -43 -99.5t-102 -41.5q-58 0 -99.5 41.5
t-41.5 99.5zM721 270q0 -51 37 -89t89 -38q53 0 90 38t37 89q0 52 -37 89.5t-90 37.5q-52 0 -89 -37.5t-37 -89.5z" />
    <glyph glyph-name="I" unicode="I" horiz-adv-x="1024" 
d="M32 494q0 58 41 99.5t100 41.5q58 0 99.5 -41.5t41.5 -99.5q0 -59 -41.5 -100t-99.5 -41q-59 0 -100 41t-41 100zM46 494q0 -52 37.5 -89t89.5 -37q51 0 88.5 37t37.5 89q0 50 -37.5 88t-88.5 38q-52 0 -89.5 -38t-37.5 -88zM58 494q0 45 33 79t82 34q44 0 78.5 -34
t34.5 -79q0 -50 -34.5 -81t-78.5 -31q-49 0 -82 31t-33 81zM80 494q0 -39 27 -64.5t66 -25.5q36 0 63.5 25.5t27.5 64.5q0 36 -27.5 63.5t-63.5 27.5q-39 0 -66 -27.5t-27 -63.5zM351 602q0 48 33.5 81.5t80.5 33.5t81 -33.5t34 -81.5q0 -46 -34 -80t-81 -34t-80.5 34
t-33.5 80zM373 602q0 -37 27.5 -64t64.5 -27q38 0 65.5 27t27.5 64q0 38 -27.5 65t-65.5 27q-37 0 -64.5 -27t-27.5 -65zM324 602q0 59 41.5 102t99.5 43q59 0 101 -43t42 -102q0 -58 -42 -99.5t-101 -41.5q-58 0 -99.5 41.5t-41.5 99.5zM339 602q0 -51 37 -88.5t89 -37.5
t89 37.5t37 88.5q0 54 -37 90.5t-89 36.5t-89 -36.5t-37 -90.5zM120 162q0 45 33 79t82 34q44 0 78.5 -34t34.5 -79q0 -50 -34.5 -81t-78.5 -31q-49 0 -82 31t-33 81zM142 162q0 -39 27 -64.5t66 -25.5q36 0 63.5 25.5t27.5 64.5q0 36 -27.5 63.5t-63.5 27.5
q-39 0 -66 -27.5t-27 -63.5zM92 162q0 58 42 99.5t101 41.5q58 0 99.5 -41.5t41.5 -99.5q0 -59 -41.5 -100t-99.5 -41q-59 0 -101 41t-42 100zM107 162q0 -53 37.5 -88.5t90.5 -35.5q51 0 88.5 35.5t37.5 88.5q0 50 -37.5 87.5t-88.5 37.5q-53 0 -90.5 -37.5t-37.5 -87.5z
M413 270q0 47 33.5 80.5t80.5 33.5t81 -33.5t34 -80.5q0 -46 -34 -80t-81 -34t-80.5 34t-33.5 80zM435 270q0 -38 27.5 -65t64.5 -27q38 0 65.5 27t27.5 65t-27.5 65t-65.5 27q-37 0 -64.5 -27t-27.5 -65zM386 270q0 59 41.5 101t99.5 42q59 0 101 -42t42 -101
q0 -58 -42 -99.5t-101 -41.5q-58 0 -99.5 41.5t-41.5 99.5zM401 270q0 -51 37 -89t89 -38t89 38t37 89q0 52 -37 89.5t-89 37.5t-89 -37.5t-37 -89.5zM672 602q0 48 33.5 81.5t80.5 33.5t80.5 -33.5t33.5 -81.5q0 -46 -33.5 -80t-80.5 -34t-80.5 34t-33.5 80zM694 602
q0 -37 27.5 -64t64.5 -27q38 0 64.5 27t26.5 64q0 38 -26.5 65t-64.5 27q-37 0 -64.5 -27t-27.5 -65zM644 602q0 59 41.5 102t100.5 43q58 0 101 -43t43 -102q0 -58 -43 -99.5t-101 -41.5q-59 0 -100.5 41.5t-41.5 99.5zM659 602q0 -51 37.5 -88.5t89.5 -37.5t89 37.5
t37 88.5q0 54 -37 90.5t-89 36.5t-89.5 -36.5t-37.5 -90.5zM734 270q0 47 33.5 80.5t79.5 33.5q48 0 81 -33.5t33 -80.5q0 -46 -33 -80t-81 -34q-46 0 -79.5 34t-33.5 80zM756 270q0 -38 27 -65t64 -27q38 0 65 27t27 65t-27 65t-65 27q-37 0 -64 -27t-27 -65zM706 270
q0 59 41.5 101t99.5 42q59 0 102 -42t43 -101q0 -58 -43 -99.5t-102 -41.5q-58 0 -99.5 41.5t-41.5 99.5zM721 270q0 -51 37 -89t89 -38q53 0 90 38t37 89q0 52 -37 89.5t-90 37.5q-52 0 -89 -37.5t-37 -89.5z" />
    <glyph glyph-name="J" unicode="J" horiz-adv-x="1024" 
d="M32 494q0 58 41 99.5t100 41.5q58 0 99.5 -41.5t41.5 -99.5q0 -59 -41.5 -100t-99.5 -41q-59 0 -100 41t-41 100zM46 494q0 -52 37.5 -89t89.5 -37q51 0 88.5 37t37.5 89q0 50 -37.5 88t-88.5 38q-52 0 -89.5 -38t-37.5 -88zM58 494q0 45 33 79t82 34q44 0 78.5 -34
t34.5 -79q0 -50 -34.5 -81t-78.5 -31q-49 0 -82 31t-33 81zM80 494q0 -39 27 -64.5t66 -25.5q36 0 63.5 25.5t27.5 64.5q0 36 -27.5 63.5t-63.5 27.5q-39 0 -66 -27.5t-27 -63.5zM351 602q0 48 33.5 81.5t80.5 33.5t81 -33.5t34 -81.5q0 -46 -34 -80t-81 -34t-80.5 34
t-33.5 80zM373 602q0 -37 27.5 -64t64.5 -27q38 0 65.5 27t27.5 64q0 38 -27.5 65t-65.5 27q-37 0 -64.5 -27t-27.5 -65zM324 602q0 59 41.5 102t99.5 43q59 0 101 -43t42 -102q0 -58 -42 -99.5t-101 -41.5q-58 0 -99.5 41.5t-41.5 99.5zM339 602q0 -51 37 -88.5t89 -37.5
t89 37.5t37 88.5q0 54 -37 90.5t-89 36.5t-89 -36.5t-37 -90.5zM120 162q0 45 33 79t82 34q44 0 78.5 -34t34.5 -79q0 -50 -34.5 -81t-78.5 -31q-49 0 -82 31t-33 81zM92 162q0 58 42 99.5t101 41.5q58 0 99.5 -41.5t41.5 -99.5q0 -59 -41.5 -100t-99.5 -41q-59 0 -101 41
t-42 100zM107 162q0 -53 37.5 -88.5t90.5 -35.5q51 0 88.5 35.5t37.5 88.5q0 50 -37.5 87.5t-88.5 37.5q-53 0 -90.5 -37.5t-37.5 -87.5zM413 270q0 47 33.5 80.5t80.5 33.5t81 -33.5t34 -80.5q0 -46 -34 -80t-81 -34t-80.5 34t-33.5 80zM386 270q0 59 41.5 101t99.5 42
q59 0 101 -42t42 -101q0 -58 -42 -99.5t-101 -41.5q-58 0 -99.5 41.5t-41.5 99.5zM401 270q0 -51 37 -89t89 -38t89 38t37 89q0 52 -37 89.5t-89 37.5t-89 -37.5t-37 -89.5zM672 602q0 48 33.5 81.5t80.5 33.5t80.5 -33.5t33.5 -81.5q0 -46 -33.5 -80t-80.5 -34t-80.5 34
t-33.5 80zM694 602q0 -37 27.5 -64t64.5 -27q38 0 64.5 27t26.5 64q0 38 -26.5 65t-64.5 27q-37 0 -64.5 -27t-27.5 -65zM644 602q0 59 41.5 102t100.5 43q58 0 101 -43t43 -102q0 -58 -43 -99.5t-101 -41.5q-59 0 -100.5 41.5t-41.5 99.5zM659 602q0 -51 37.5 -88.5
t89.5 -37.5t89 37.5t37 88.5q0 54 -37 90.5t-89 36.5t-89.5 -36.5t-37.5 -90.5zM734 270q0 47 33.5 80.5t79.5 33.5q48 0 81 -33.5t33 -80.5q0 -46 -33 -80t-81 -34q-46 0 -79.5 34t-33.5 80zM706 270q0 59 41.5 101t99.5 42q59 0 102 -42t43 -101q0 -58 -43 -99.5
t-102 -41.5q-58 0 -99.5 41.5t-41.5 99.5zM721 270q0 -51 37 -89t89 -38q53 0 90 38t37 89q0 52 -37 89.5t-90 37.5q-52 0 -89 -37.5t-37 -89.5z" />
    <glyph glyph-name="K" unicode="K" horiz-adv-x="1024" 
d="M63 264q0 58 41 99.5t100 41.5q58 0 99.5 -41.5t41.5 -99.5q0 -59 -41.5 -100t-99.5 -41q-59 0 -100 41t-41 100zM77 264q0 -52 37.5 -89t89.5 -37q51 0 88.5 37t37.5 89q0 50 -37.5 88t-88.5 38q-52 0 -89.5 -38t-37.5 -88zM89 264q0 45 33 79t82 34q44 0 78.5 -34
t34.5 -79q0 -50 -34.5 -81t-78.5 -31q-49 0 -82 31t-33 81zM382 468q0 48 33.5 81.5t80.5 33.5t81 -33.5t34 -81.5q0 -46 -34 -80t-81 -34t-80.5 34t-33.5 80zM355 468q0 59 41.5 102t99.5 43q59 0 101 -43t42 -102q0 -58 -42 -99.5t-101 -41.5q-58 0 -99.5 41.5t-41.5 99.5
zM370 468q0 -51 37 -88.5t89 -37.5t89 37.5t37 88.5q0 54 -37 90.5t-89 36.5t-89 -36.5t-37 -90.5zM703 500q0 48 33.5 81.5t80.5 33.5t80.5 -33.5t33.5 -81.5q0 -46 -33.5 -80t-80.5 -34t-80.5 34t-33.5 80zM725 500q0 -37 27.5 -64t64.5 -27q38 0 64.5 27t26.5 64
q0 38 -26.5 65t-64.5 27q-37 0 -64.5 -27t-27.5 -65zM675 500q0 59 41.5 102t100.5 43q58 0 101 -43t43 -102q0 -58 -43 -99.5t-101 -41.5q-59 0 -100.5 41.5t-41.5 99.5zM690 500q0 -51 37.5 -88.5t89.5 -37.5t89 37.5t37 88.5q0 54 -37 90.5t-89 36.5t-89.5 -36.5
t-37.5 -90.5z" />
    <glyph glyph-name="L" unicode="L" horiz-adv-x="1024" 
d="M63 264q0 58 41 99.5t100 41.5q58 0 99.5 -41.5t41.5 -99.5q0 -59 -41.5 -100t-99.5 -41q-59 0 -100 41t-41 100zM77 264q0 -52 37.5 -89t89.5 -37q51 0 88.5 37t37.5 89q0 50 -37.5 88t-88.5 38q-52 0 -89.5 -38t-37.5 -88zM89 264q0 45 33 79t82 34q44 0 78.5 -34
t34.5 -79q0 -50 -34.5 -81t-78.5 -31q-49 0 -82 31t-33 81zM111 264q0 -39 27 -64.5t66 -25.5q36 0 63.5 25.5t27.5 64.5q0 36 -27.5 63.5t-63.5 27.5q-39 0 -66 -27.5t-27 -63.5zM382 468q0 48 33.5 81.5t80.5 33.5t81 -33.5t34 -81.5q0 -46 -34 -80t-81 -34t-80.5 34
t-33.5 80zM355 468q0 59 41.5 102t99.5 43q59 0 101 -43t42 -102q0 -58 -42 -99.5t-101 -41.5q-58 0 -99.5 41.5t-41.5 99.5zM370 468q0 -51 37 -88.5t89 -37.5t89 37.5t37 88.5q0 54 -37 90.5t-89 36.5t-89 -36.5t-37 -90.5zM703 500q0 48 33.5 81.5t80.5 33.5t80.5 -33.5
t33.5 -81.5q0 -46 -33.5 -80t-80.5 -34t-80.5 34t-33.5 80zM675 500q0 59 41.5 102t100.5 43q58 0 101 -43t43 -102q0 -58 -43 -99.5t-101 -41.5q-59 0 -100.5 41.5t-41.5 99.5zM690 500q0 -51 37.5 -88.5t89.5 -37.5t89 37.5t37 88.5q0 54 -37 90.5t-89 36.5t-89.5 -36.5
t-37.5 -90.5z" />
    <glyph glyph-name="M" unicode="M" horiz-adv-x="1024" 
d="M32 494q0 58 41 99.5t100 41.5q58 0 99.5 -41.5t41.5 -99.5q0 -59 -41.5 -100t-99.5 -41q-59 0 -100 41t-41 100zM46 494q0 -52 37.5 -89t89.5 -37q51 0 88.5 37t37.5 89q0 50 -37.5 88t-88.5 38q-52 0 -89.5 -38t-37.5 -88zM58 494q0 45 33 79t82 34q44 0 78.5 -34
t34.5 -79q0 -50 -34.5 -81t-78.5 -31q-49 0 -82 31t-33 81zM351 602q0 48 33.5 81.5t80.5 33.5t81 -33.5t34 -81.5q0 -46 -34 -80t-81 -34t-80.5 34t-33.5 80zM324 602q0 59 41.5 102t99.5 43q59 0 101 -43t42 -102q0 -58 -42 -99.5t-101 -41.5q-58 0 -99.5 41.5t-41.5 99.5
zM339 602q0 -51 37 -88.5t89 -37.5t89 37.5t37 88.5q0 54 -37 90.5t-89 36.5t-89 -36.5t-37 -90.5zM120 162q0 45 33 79t82 34q44 0 78.5 -34t34.5 -79q0 -50 -34.5 -81t-78.5 -31q-49 0 -82 31t-33 81zM92 162q0 58 42 99.5t101 41.5q58 0 99.5 -41.5t41.5 -99.5
q0 -59 -41.5 -100t-99.5 -41q-59 0 -101 41t-42 100zM107 162q0 -53 37.5 -88.5t90.5 -35.5q51 0 88.5 35.5t37.5 88.5q0 50 -37.5 87.5t-88.5 37.5q-53 0 -90.5 -37.5t-37.5 -87.5zM413 270q0 47 33.5 80.5t80.5 33.5t81 -33.5t34 -80.5q0 -46 -34 -80t-81 -34t-80.5 34
t-33.5 80zM386 270q0 59 41.5 101t99.5 42q59 0 101 -42t42 -101q0 -58 -42 -99.5t-101 -41.5q-58 0 -99.5 41.5t-41.5 99.5zM401 270q0 -51 37 -89t89 -38t89 38t37 89q0 52 -37 89.5t-89 37.5t-89 -37.5t-37 -89.5zM672 602q0 48 33.5 81.5t80.5 33.5t80.5 -33.5
t33.5 -81.5q0 -46 -33.5 -80t-80.5 -34t-80.5 34t-33.5 80zM644 602q0 59 41.5 102t100.5 43q58 0 101 -43t43 -102q0 -58 -43 -99.5t-101 -41.5q-59 0 -100.5 41.5t-41.5 99.5zM659 602q0 -51 37.5 -88.5t89.5 -37.5t89 37.5t37 88.5q0 54 -37 90.5t-89 36.5t-89.5 -36.5
t-37.5 -90.5zM734 270q0 47 33.5 80.5t79.5 33.5q48 0 81 -33.5t33 -80.5q0 -46 -33 -80t-81 -34q-46 0 -79.5 34t-33.5 80zM706 270q0 59 41.5 101t99.5 42q59 0 102 -42t43 -101q0 -58 -43 -99.5t-102 -41.5q-58 0 -99.5 41.5t-41.5 99.5zM721 270q0 -51 37 -89t89 -38
q53 0 90 38t37 89q0 52 -37 89.5t-90 37.5q-52 0 -89 -37.5t-37 -89.5z" />
    <glyph glyph-name="N" unicode="N" horiz-adv-x="1024" 
d="M32 494q0 58 41 99.5t100 41.5q58 0 99.5 -41.5t41.5 -99.5q0 -59 -41.5 -100t-99.5 -41q-59 0 -100 41t-41 100zM46 494q0 -52 37.5 -89t89.5 -37q51 0 88.5 37t37.5 89q0 50 -37.5 88t-88.5 38q-52 0 -89.5 -38t-37.5 -88zM58 494q0 45 33 79t82 34q44 0 78.5 -34
t34.5 -79q0 -50 -34.5 -81t-78.5 -31q-49 0 -82 31t-33 81zM80 494q0 -39 27 -64.5t66 -25.5q36 0 63.5 25.5t27.5 64.5q0 36 -27.5 63.5t-63.5 27.5q-39 0 -66 -27.5t-27 -63.5zM351 602q0 48 33.5 81.5t80.5 33.5t81 -33.5t34 -81.5q0 -46 -34 -80t-81 -34t-80.5 34
t-33.5 80zM373 602q0 -37 27.5 -64t64.5 -27q38 0 65.5 27t27.5 64q0 38 -27.5 65t-65.5 27q-37 0 -64.5 -27t-27.5 -65zM324 602q0 59 41.5 102t99.5 43q59 0 101 -43t42 -102q0 -58 -42 -99.5t-101 -41.5q-58 0 -99.5 41.5t-41.5 99.5zM339 602q0 -51 37 -88.5t89 -37.5
t89 37.5t37 88.5q0 54 -37 90.5t-89 36.5t-89 -36.5t-37 -90.5zM120 162q0 45 33 79t82 34q44 0 78.5 -34t34.5 -79q0 -50 -34.5 -81t-78.5 -31q-49 0 -82 31t-33 81zM142 162q0 -39 27 -64.5t66 -25.5q36 0 63.5 25.5t27.5 64.5q0 36 -27.5 63.5t-63.5 27.5
q-39 0 -66 -27.5t-27 -63.5zM92 162q0 58 42 99.5t101 41.5q58 0 99.5 -41.5t41.5 -99.5q0 -59 -41.5 -100t-99.5 -41q-59 0 -101 41t-42 100zM107 162q0 -53 37.5 -88.5t90.5 -35.5q51 0 88.5 35.5t37.5 88.5q0 50 -37.5 87.5t-88.5 37.5q-53 0 -90.5 -37.5t-37.5 -87.5z
M413 270q0 47 33.5 80.5t80.5 33.5t81 -33.5t34 -80.5q0 -46 -34 -80t-81 -34t-80.5 34t-33.5 80zM435 270q0 -38 27.5 -65t64.5 -27q38 0 65.5 27t27.5 65t-27.5 65t-65.5 27q-37 0 -64.5 -27t-27.5 -65zM386 270q0 59 41.5 101t99.5 42q59 0 101 -42t42 -101
q0 -58 -42 -99.5t-101 -41.5q-58 0 -99.5 41.5t-41.5 99.5zM401 270q0 -51 37 -89t89 -38t89 38t37 89q0 52 -37 89.5t-89 37.5t-89 -37.5t-37 -89.5zM672 602q0 48 33.5 81.5t80.5 33.5t80.5 -33.5t33.5 -81.5q0 -46 -33.5 -80t-80.5 -34t-80.5 34t-33.5 80zM644 602
q0 59 41.5 102t100.5 43q58 0 101 -43t43 -102q0 -58 -43 -99.5t-101 -41.5q-59 0 -100.5 41.5t-41.5 99.5zM659 602q0 -51 37.5 -88.5t89.5 -37.5t89 37.5t37 88.5q0 54 -37 90.5t-89 36.5t-89.5 -36.5t-37.5 -90.5zM734 270q0 47 33.5 80.5t79.5 33.5q48 0 81 -33.5
t33 -80.5q0 -46 -33 -80t-81 -34q-46 0 -79.5 34t-33.5 80zM706 270q0 59 41.5 101t99.5 42q59 0 102 -42t43 -101q0 -58 -43 -99.5t-102 -41.5q-58 0 -99.5 41.5t-41.5 99.5zM721 270q0 -51 37 -89t89 -38q53 0 90 38t37 89q0 52 -37 89.5t-90 37.5q-52 0 -89 -37.5
t-37 -89.5z" />
    <glyph glyph-name="O" unicode="O" horiz-adv-x="1024" 
d="M127 464q-29 52 -14 109.5t67 87.5q51 30 109.5 14.5t88.5 -67.5t14 -109q-9 -33 -29 -56l149 -259l149 259q-20 23 -29 56q-16 57 14 109t88.5 67.5t109.5 -14.5q52 -30 67 -87.5t-14 -109.5q-30 -52 -88 -67q-32 -9 -63 -2l-129 -223l8 -4q47 -24 47 -56
q0 -33 -47.5 -56.5t-112.5 -23.5q-66 0 -113 23.5t-47 56.5q0 32 47 56l8 4l-129 223q-31 -7 -63 2q-58 15 -88 67zM167 524q10 -17 29 -22t36 5q17 9 22.5 28.5t-4.5 36.5t-29.5 22t-36.5 -4q-17 -10 -22 -29.5t5 -36.5zM761 524q10 17 5 36.5t-22 29.5q-17 9 -36.5 4
t-29.5 -22t-4.5 -36.5t22.5 -28.5q17 -10 36 -5t29 22zM0 256q0 92 65 158q15 15 31 26v-18l-8 -8q-56 -66 -56 -158q0 -93 56 -159l8 -8v-17q-16 11 -31 25q-65 66 -65 159zM96 256q0 80 49 140q8 -7 17 -12q-34 -56 -34 -128q0 -93 56 -159l8 -8v-17q-16 11 -31 25
q-65 66 -65 159zM192 256q0 59 27 107q13 -2 27 -3q-22 -47 -22 -104q0 -93 56 -159l8 -8v-17q-16 11 -31 25q-65 66 -65 159zM1024 256q0 -93 -65 -159q-15 -14 -31 -25v17l8 8q56 66 56 159q0 92 -56 158l-8 8v18q16 -11 31 -26q65 -66 65 -158zM928 256q0 -93 -65 -159
q-15 -14 -31 -25v17l8 8q56 66 56 159q0 72 -34 128q9 5 17 12q49 -60 49 -140zM832 256q0 -93 -65 -159q-15 -14 -31 -25v17l8 8q56 66 56 159q0 57 -22 104q14 1 27 3q27 -48 27 -107zM384 120q0 -20 37.5 -34t90.5 -14q52 0 90 14t38 34q0 18 -34 32l-14 -24h-38l160 277
l-14 7l-13 9l-156 -270h-38l-156 270l-13 -9l-14 -7l160 -277h-38l-14 24q-34 -14 -34 -32zM416 512v32h192v-32h-192zM416 416v32h192v-32h-192zM416 608v32h192v-32h-192z" />
    <glyph glyph-name="P" unicode="P" horiz-adv-x="1024" 
d="M63 264q0 58 41 99.5t100 41.5q58 0 99.5 -41.5t41.5 -99.5q0 -59 -41.5 -100t-99.5 -41q-59 0 -100 41t-41 100zM77 264q0 -52 37.5 -89t89.5 -37q51 0 88.5 37t37.5 89q0 50 -37.5 88t-88.5 38q-52 0 -89.5 -38t-37.5 -88zM89 264q0 45 33 79t82 34q44 0 78.5 -34
t34.5 -79q0 -50 -34.5 -81t-78.5 -31q-49 0 -82 31t-33 81zM382 468q0 48 33.5 81.5t80.5 33.5t81 -33.5t34 -81.5q0 -46 -34 -80t-81 -34t-80.5 34t-33.5 80zM404 468q0 -37 27.5 -64t64.5 -27q38 0 65.5 27t27.5 64q0 38 -27.5 65t-65.5 27q-37 0 -64.5 -27t-27.5 -65z
M355 468q0 59 41.5 102t99.5 43q59 0 101 -43t42 -102q0 -58 -42 -99.5t-101 -41.5q-58 0 -99.5 41.5t-41.5 99.5zM370 468q0 -51 37 -88.5t89 -37.5t89 37.5t37 88.5q0 54 -37 90.5t-89 36.5t-89 -36.5t-37 -90.5zM703 500q0 48 33.5 81.5t80.5 33.5t80.5 -33.5t33.5 -81.5
q0 -46 -33.5 -80t-80.5 -34t-80.5 34t-33.5 80zM725 500q0 -37 27.5 -64t64.5 -27q38 0 64.5 27t26.5 64q0 38 -26.5 65t-64.5 27q-37 0 -64.5 -27t-27.5 -65zM675 500q0 59 41.5 102t100.5 43q58 0 101 -43t43 -102q0 -58 -43 -99.5t-101 -41.5q-59 0 -100.5 41.5
t-41.5 99.5zM690 500q0 -51 37.5 -88.5t89.5 -37.5t89 37.5t37 88.5q0 54 -37 90.5t-89 36.5t-89.5 -36.5t-37.5 -90.5z" />
    <glyph glyph-name="Q" unicode="Q" horiz-adv-x="1024" 
d="M675 658l-124 -124l235 -237l-187 -187l-237 235l-124 -124v437h437z" />
    <glyph glyph-name="R" unicode="R" horiz-adv-x="1024" 
d="M58 494q0 46 33 79.5t82 33.5q45 0 79.5 -33.5t34.5 -79.5q0 -49 -34.5 -82t-79.5 -33q-49 0 -82 33t-33 82zM32 494q0 58 41 99.5t100 41.5q58 0 99.5 -41.5t41.5 -99.5q0 -59 -41.5 -100t-99.5 -41q-59 0 -100 41t-41 100zM46 494q0 -52 37.5 -89t89.5 -37
q51 0 88.5 37t37.5 89q0 50 -37.5 88t-88.5 38q-52 0 -89.5 -38t-37.5 -88zM351 602q0 48 33.5 81.5t80.5 33.5t81 -33.5t34 -81.5q0 -46 -34 -80t-81 -34t-80.5 34t-33.5 80zM373 602q0 -37 27.5 -64t64.5 -27q38 0 65.5 27t27.5 64q0 38 -27.5 65t-65.5 27
q-37 0 -64.5 -27t-27.5 -65zM324 602q0 59 41.5 102t99.5 43q59 0 101 -43t42 -102q0 -58 -42 -99.5t-101 -41.5q-58 0 -99.5 41.5t-41.5 99.5zM339 602q0 -51 37 -88.5t89 -37.5t89 37.5t37 88.5q0 54 -37 90.5t-89 36.5t-89 -36.5t-37 -90.5zM120 162q0 45 33 79t82 34
q44 0 78.5 -34t34.5 -79q0 -50 -34.5 -81t-78.5 -31q-49 0 -82 31t-33 81zM142 162q0 -39 27 -64.5t66 -25.5q36 0 63.5 25.5t27.5 64.5q0 36 -27.5 63.5t-63.5 27.5q-39 0 -66 -27.5t-27 -63.5zM92 162q0 58 42 99.5t101 41.5q58 0 99.5 -41.5t41.5 -99.5q0 -59 -41.5 -100
t-99.5 -41q-59 0 -101 41t-42 100zM107 162q0 -53 37.5 -88.5t90.5 -35.5q51 0 88.5 35.5t37.5 88.5q0 50 -37.5 87.5t-88.5 37.5q-53 0 -90.5 -37.5t-37.5 -87.5zM413 270q0 47 33.5 80.5t80.5 33.5t81 -33.5t34 -80.5q0 -46 -34 -80t-81 -34t-80.5 34t-33.5 80zM435 270
q0 -38 27.5 -65t64.5 -27q38 0 65.5 27t27.5 65t-27.5 65t-65.5 27q-37 0 -64.5 -27t-27.5 -65zM386 270q0 59 41.5 101t99.5 42q59 0 101 -42t42 -101q0 -58 -42 -99.5t-101 -41.5q-58 0 -99.5 41.5t-41.5 99.5zM401 270q0 -51 37 -89t89 -38t89 38t37 89q0 52 -37 89.5
t-89 37.5t-89 -37.5t-37 -89.5zM672 602q0 48 33.5 81.5t80.5 33.5t80.5 -33.5t33.5 -81.5q0 -46 -33.5 -80t-80.5 -34t-80.5 34t-33.5 80zM694 602q0 -37 27.5 -64t64.5 -27q38 0 64.5 27t26.5 64q0 38 -26.5 65t-64.5 27q-37 0 -64.5 -27t-27.5 -65zM644 602
q0 59 41.5 102t100.5 43q58 0 101 -43t43 -102q0 -58 -43 -99.5t-101 -41.5q-59 0 -100.5 41.5t-41.5 99.5zM659 602q0 -51 37.5 -88.5t89.5 -37.5t89 37.5t37 88.5q0 54 -37 90.5t-89 36.5t-89.5 -36.5t-37.5 -90.5zM734 270q0 47 33.5 80.5t79.5 33.5q48 0 81 -33.5
t33 -80.5q0 -46 -33 -80t-81 -34q-46 0 -79.5 34t-33.5 80zM756 270q0 -38 27 -65t64 -27q38 0 65 27t27 65t-27 65t-65 27q-37 0 -64 -27t-27 -65zM706 270q0 59 41.5 101t99.5 42q59 0 102 -42t43 -101q0 -58 -43 -99.5t-102 -41.5q-58 0 -99.5 41.5t-41.5 99.5zM721 270
q0 -51 37 -89t89 -38q53 0 90 38t37 89q0 52 -37 89.5t-90 37.5q-52 0 -89 -37.5t-37 -89.5z" />
    <glyph glyph-name="S" unicode="S" horiz-adv-x="1024" 
d="M950 375q0 -181 -128 -310t-309 -129q-179 0 -309 129t-130 310q0 179 130 309q48 46 102 76l-38 73l178 -56l-58 -174l-39 76q-43 -25 -80 -62q-101 -101 -101 -242q0 -143 102 -244t243 -101q144 0 244.5 101t100.5 244q0 141 -101 242q-94 94 -220 101v91
q163 -8 285 -125q128 -130 128 -309z" />
    <glyph glyph-name="T" unicode="T" horiz-adv-x="1024" 
d="M32 494q0 58 41 99.5t100 41.5q58 0 99.5 -41.5t41.5 -99.5q0 -59 -41.5 -100t-99.5 -41q-59 0 -100 41t-41 100zM46 494q0 -52 37.5 -89t89.5 -37q51 0 88.5 37t37.5 89q0 50 -37.5 88t-88.5 38q-52 0 -89.5 -38t-37.5 -88zM58 494q0 45 33 79t82 34q44 0 78.5 -34
t34.5 -79q0 -50 -34.5 -81t-78.5 -31q-49 0 -82 31t-33 81zM80 494q0 -39 27 -64.5t66 -25.5q36 0 63.5 25.5t27.5 64.5q0 36 -27.5 63.5t-63.5 27.5q-39 0 -66 -27.5t-27 -63.5zM351 602q0 48 33.5 81.5t80.5 33.5t81 -33.5t34 -81.5q0 -46 -34 -80t-81 -34t-80.5 34
t-33.5 80zM324 602q0 59 41.5 102t99.5 43q59 0 101 -43t42 -102q0 -58 -42 -99.5t-101 -41.5q-58 0 -99.5 41.5t-41.5 99.5zM339 602q0 -51 37 -88.5t89 -37.5t89 37.5t37 88.5q0 54 -37 90.5t-89 36.5t-89 -36.5t-37 -90.5zM120 162q0 45 33 79t82 34q44 0 78.5 -34
t34.5 -79q0 -50 -34.5 -81t-78.5 -31q-49 0 -82 31t-33 81zM142 162q0 -39 27 -64.5t66 -25.5q36 0 63.5 25.5t27.5 64.5q0 36 -27.5 63.5t-63.5 27.5q-39 0 -66 -27.5t-27 -63.5zM92 162q0 58 42 99.5t101 41.5q58 0 99.5 -41.5t41.5 -99.5q0 -59 -41.5 -100t-99.5 -41
q-59 0 -101 41t-42 100zM107 162q0 -53 37.5 -88.5t90.5 -35.5q51 0 88.5 35.5t37.5 88.5q0 50 -37.5 87.5t-88.5 37.5q-53 0 -90.5 -37.5t-37.5 -87.5zM413 270q0 47 33.5 80.5t80.5 33.5t81 -33.5t34 -80.5q0 -46 -34 -80t-81 -34t-80.5 34t-33.5 80zM435 270
q0 -38 27.5 -65t64.5 -27q38 0 65.5 27t27.5 65t-27.5 65t-65.5 27q-37 0 -64.5 -27t-27.5 -65zM386 270q0 59 41.5 101t99.5 42q59 0 101 -42t42 -101q0 -58 -42 -99.5t-101 -41.5q-58 0 -99.5 41.5t-41.5 99.5zM401 270q0 -51 37 -89t89 -38t89 38t37 89q0 52 -37 89.5
t-89 37.5t-89 -37.5t-37 -89.5zM672 602q0 48 33.5 81.5t80.5 33.5t80.5 -33.5t33.5 -81.5q0 -46 -33.5 -80t-80.5 -34t-80.5 34t-33.5 80zM694 602q0 -37 27.5 -64t64.5 -27q38 0 64.5 27t26.5 64q0 38 -26.5 65t-64.5 27q-37 0 -64.5 -27t-27.5 -65zM644 602
q0 59 41.5 102t100.5 43q58 0 101 -43t43 -102q0 -58 -43 -99.5t-101 -41.5q-59 0 -100.5 41.5t-41.5 99.5zM659 602q0 -51 37.5 -88.5t89.5 -37.5t89 37.5t37 88.5q0 54 -37 90.5t-89 36.5t-89.5 -36.5t-37.5 -90.5zM734 270q0 47 33.5 80.5t79.5 33.5q48 0 81 -33.5
t33 -80.5q0 -46 -33 -80t-81 -34q-46 0 -79.5 34t-33.5 80zM756 270q0 -38 27 -65t64 -27q38 0 65 27t27 65t-27 65t-65 27q-37 0 -64 -27t-27 -65zM706 270q0 59 41.5 101t99.5 42q59 0 102 -42t43 -101q0 -58 -43 -99.5t-102 -41.5q-58 0 -99.5 41.5t-41.5 99.5zM721 270
q0 -51 37 -89t89 -38q53 0 90 38t37 89q0 52 -37 89.5t-90 37.5q-52 0 -89 -37.5t-37 -89.5z" />
    <glyph glyph-name="U" unicode="U" horiz-adv-x="1024" 
d="M32 494q0 58 41 99.5t100 41.5q58 0 99.5 -41.5t41.5 -99.5q0 -59 -41.5 -100t-99.5 -41q-59 0 -100 41t-41 100zM46 494q0 -52 37.5 -89t89.5 -37q51 0 88.5 37t37.5 89q0 50 -37.5 88t-88.5 38q-52 0 -89.5 -38t-37.5 -88zM58 494q0 45 33 79t82 34q44 0 78.5 -34
t34.5 -79q0 -50 -34.5 -81t-78.5 -31q-49 0 -82 31t-33 81zM351 602q0 48 33.5 81.5t80.5 33.5t81 -33.5t34 -81.5q0 -46 -34 -80t-81 -34t-80.5 34t-33.5 80zM324 602q0 59 41.5 102t99.5 43q59 0 101 -43t42 -102q0 -58 -42 -99.5t-101 -41.5q-58 0 -99.5 41.5t-41.5 99.5
zM339 602q0 -51 37 -88.5t89 -37.5t89 37.5t37 88.5q0 54 -37 90.5t-89 36.5t-89 -36.5t-37 -90.5zM120 162q0 45 33 79t82 34q44 0 78.5 -34t34.5 -79q0 -50 -34.5 -81t-78.5 -31q-49 0 -82 31t-33 81zM142 162q0 -39 27 -64.5t66 -25.5q36 0 63.5 25.5t27.5 64.5
q0 36 -27.5 63.5t-63.5 27.5q-39 0 -66 -27.5t-27 -63.5zM92 162q0 58 42 99.5t101 41.5q58 0 99.5 -41.5t41.5 -99.5q0 -59 -41.5 -100t-99.5 -41q-59 0 -101 41t-42 100zM107 162q0 -53 37.5 -88.5t90.5 -35.5q51 0 88.5 35.5t37.5 88.5q0 50 -37.5 87.5t-88.5 37.5
q-53 0 -90.5 -37.5t-37.5 -87.5zM413 270q0 47 33.5 80.5t80.5 33.5t81 -33.5t34 -80.5q0 -46 -34 -80t-81 -34t-80.5 34t-33.5 80zM435 270q0 -38 27.5 -65t64.5 -27q38 0 65.5 27t27.5 65t-27.5 65t-65.5 27q-37 0 -64.5 -27t-27.5 -65zM386 270q0 59 41.5 101t99.5 42
q59 0 101 -42t42 -101q0 -58 -42 -99.5t-101 -41.5q-58 0 -99.5 41.5t-41.5 99.5zM401 270q0 -51 37 -89t89 -38t89 38t37 89q0 52 -37 89.5t-89 37.5t-89 -37.5t-37 -89.5zM672 602q0 48 33.5 81.5t80.5 33.5t80.5 -33.5t33.5 -81.5q0 -46 -33.5 -80t-80.5 -34t-80.5 34
t-33.5 80zM644 602q0 59 41.5 102t100.5 43q58 0 101 -43t43 -102q0 -58 -43 -99.5t-101 -41.5q-59 0 -100.5 41.5t-41.5 99.5zM659 602q0 -51 37.5 -88.5t89.5 -37.5t89 37.5t37 88.5q0 54 -37 90.5t-89 36.5t-89.5 -36.5t-37.5 -90.5zM734 270q0 47 33.5 80.5t79.5 33.5
q48 0 81 -33.5t33 -80.5q0 -46 -33 -80t-81 -34q-46 0 -79.5 34t-33.5 80zM756 270q0 -38 27 -65t64 -27q38 0 65 27t27 65t-27 65t-65 27q-37 0 -64 -27t-27 -65zM706 270q0 59 41.5 101t99.5 42q59 0 102 -42t43 -101q0 -58 -43 -99.5t-102 -41.5q-58 0 -99.5 41.5
t-41.5 99.5zM721 270q0 -51 37 -89t89 -38q53 0 90 38t37 89q0 52 -37 89.5t-90 37.5q-52 0 -89 -37.5t-37 -89.5z" />
    <glyph glyph-name="V" unicode="V" horiz-adv-x="1024" 
d="M32 494q0 58 41 99.5t100 41.5q58 0 99.5 -41.5t41.5 -99.5q0 -59 -41.5 -100t-99.5 -41q-59 0 -100 41t-41 100zM46 494q0 -52 37.5 -89t89.5 -37q51 0 88.5 37t37.5 89q0 50 -37.5 88t-88.5 38q-52 0 -89.5 -38t-37.5 -88zM58 494q0 45 33 79t82 34q44 0 78.5 -34
t34.5 -79q0 -50 -34.5 -81t-78.5 -31q-49 0 -82 31t-33 81zM351 602q0 48 33.5 81.5t80.5 33.5t81 -33.5t34 -81.5q0 -46 -34 -80t-81 -34t-80.5 34t-33.5 80zM373 602q0 -37 27.5 -64t64.5 -27q38 0 65.5 27t27.5 64q0 38 -27.5 65t-65.5 27q-37 0 -64.5 -27t-27.5 -65z
M324 602q0 59 41.5 102t99.5 43q59 0 101 -43t42 -102q0 -58 -42 -99.5t-101 -41.5q-58 0 -99.5 41.5t-41.5 99.5zM339 602q0 -51 37 -88.5t89 -37.5t89 37.5t37 88.5q0 54 -37 90.5t-89 36.5t-89 -36.5t-37 -90.5zM120 162q0 45 33 79t82 34q44 0 78.5 -34t34.5 -79
q0 -50 -34.5 -81t-78.5 -31q-49 0 -82 31t-33 81zM92 162q0 58 42 99.5t101 41.5q58 0 99.5 -41.5t41.5 -99.5q0 -59 -41.5 -100t-99.5 -41q-59 0 -101 41t-42 100zM107 162q0 -53 37.5 -88.5t90.5 -35.5q51 0 88.5 35.5t37.5 88.5q0 50 -37.5 87.5t-88.5 37.5
q-53 0 -90.5 -37.5t-37.5 -87.5zM413 270q0 47 33.5 80.5t80.5 33.5t81 -33.5t34 -80.5q0 -46 -34 -80t-81 -34t-80.5 34t-33.5 80zM435 270q0 -38 27.5 -65t64.5 -27q38 0 65.5 27t27.5 65t-27.5 65t-65.5 27q-37 0 -64.5 -27t-27.5 -65zM386 270q0 59 41.5 101t99.5 42
q59 0 101 -42t42 -101q0 -58 -42 -99.5t-101 -41.5q-58 0 -99.5 41.5t-41.5 99.5zM401 270q0 -51 37 -89t89 -38t89 38t37 89q0 52 -37 89.5t-89 37.5t-89 -37.5t-37 -89.5zM672 602q0 48 33.5 81.5t80.5 33.5t80.5 -33.5t33.5 -81.5q0 -46 -33.5 -80t-80.5 -34t-80.5 34
t-33.5 80zM694 602q0 -37 27.5 -64t64.5 -27q38 0 64.5 27t26.5 64q0 38 -26.5 65t-64.5 27q-37 0 -64.5 -27t-27.5 -65zM644 602q0 59 41.5 102t100.5 43q58 0 101 -43t43 -102q0 -58 -43 -99.5t-101 -41.5q-59 0 -100.5 41.5t-41.5 99.5zM659 602q0 -51 37.5 -88.5
t89.5 -37.5t89 37.5t37 88.5q0 54 -37 90.5t-89 36.5t-89.5 -36.5t-37.5 -90.5zM734 270q0 47 33.5 80.5t79.5 33.5q48 0 81 -33.5t33 -80.5q0 -46 -33 -80t-81 -34q-46 0 -79.5 34t-33.5 80zM756 270q0 -38 27 -65t64 -27q38 0 65 27t27 65t-27 65t-65 27q-37 0 -64 -27
t-27 -65zM706 270q0 59 41.5 101t99.5 42q59 0 102 -42t43 -101q0 -58 -43 -99.5t-102 -41.5q-58 0 -99.5 41.5t-41.5 99.5zM721 270q0 -51 37 -89t89 -38q53 0 90 38t37 89q0 52 -37 89.5t-90 37.5q-52 0 -89 -37.5t-37 -89.5z" />
    <glyph glyph-name="W" unicode="W" horiz-adv-x="1024" 
d="M821 397h-176v-334h-266v334h-176l308 308z" />
    <glyph glyph-name="X" unicode="X" horiz-adv-x="1024" 
d="M821 371l-310 -308l-308 308h176v334h266v-334h176z" />
    <glyph glyph-name="Y" unicode="Y" horiz-adv-x="1024" 
d="M32 494q0 58 41 99.5t100 41.5q58 0 99.5 -41.5t41.5 -99.5q0 -59 -41.5 -100t-99.5 -41q-59 0 -100 41t-41 100zM46 494q0 -52 37.5 -89t89.5 -37q51 0 88.5 37t37.5 89q0 50 -37.5 88t-88.5 38q-52 0 -89.5 -38t-37.5 -88zM58 494q0 45 33 79t82 34q44 0 78.5 -34
t34.5 -79q0 -50 -34.5 -81t-78.5 -31q-49 0 -82 31t-33 81zM80 494q0 -39 27 -64.5t66 -25.5q36 0 63.5 25.5t27.5 64.5q0 36 -27.5 63.5t-63.5 27.5q-39 0 -66 -27.5t-27 -63.5zM351 602q0 48 33.5 81.5t80.5 33.5t81 -33.5t34 -81.5q0 -46 -34 -80t-81 -34t-80.5 34
t-33.5 80zM373 602q0 -37 27.5 -64t64.5 -27q38 0 65.5 27t27.5 64q0 38 -27.5 65t-65.5 27q-37 0 -64.5 -27t-27.5 -65zM324 602q0 59 41.5 102t99.5 43q59 0 101 -43t42 -102q0 -58 -42 -99.5t-101 -41.5q-58 0 -99.5 41.5t-41.5 99.5zM339 602q0 -51 37 -88.5t89 -37.5
t89 37.5t37 88.5q0 54 -37 90.5t-89 36.5t-89 -36.5t-37 -90.5zM120 162q0 45 33 79t82 34q44 0 78.5 -34t34.5 -79q0 -50 -34.5 -81t-78.5 -31q-49 0 -82 31t-33 81zM142 162q0 -39 27 -64.5t66 -25.5q36 0 63.5 25.5t27.5 64.5q0 36 -27.5 63.5t-63.5 27.5
q-39 0 -66 -27.5t-27 -63.5zM92 162q0 58 42 99.5t101 41.5q58 0 99.5 -41.5t41.5 -99.5q0 -59 -41.5 -100t-99.5 -41q-59 0 -101 41t-42 100zM107 162q0 -53 37.5 -88.5t90.5 -35.5q51 0 88.5 35.5t37.5 88.5q0 50 -37.5 87.5t-88.5 37.5q-53 0 -90.5 -37.5t-37.5 -87.5z
M413 270q0 47 33.5 80.5t80.5 33.5t81 -33.5t34 -80.5q0 -46 -34 -80t-81 -34t-80.5 34t-33.5 80zM435 270q0 -38 27.5 -65t64.5 -27q38 0 65.5 27t27.5 65t-27.5 65t-65.5 27q-37 0 -64.5 -27t-27.5 -65zM386 270q0 59 41.5 101t99.5 42q59 0 101 -42t42 -101
q0 -58 -42 -99.5t-101 -41.5q-58 0 -99.5 41.5t-41.5 99.5zM401 270q0 -51 37 -89t89 -38t89 38t37 89q0 52 -37 89.5t-89 37.5t-89 -37.5t-37 -89.5zM672 602q0 48 33.5 81.5t80.5 33.5t80.5 -33.5t33.5 -81.5q0 -46 -33.5 -80t-80.5 -34t-80.5 34t-33.5 80zM644 602
q0 59 41.5 102t100.5 43q58 0 101 -43t43 -102q0 -58 -43 -99.5t-101 -41.5q-59 0 -100.5 41.5t-41.5 99.5zM659 602q0 -51 37.5 -88.5t89.5 -37.5t89 37.5t37 88.5q0 54 -37 90.5t-89 36.5t-89.5 -36.5t-37.5 -90.5zM734 270q0 47 33.5 80.5t79.5 33.5q48 0 81 -33.5
t33 -80.5q0 -46 -33 -80t-81 -34q-46 0 -79.5 34t-33.5 80zM756 270q0 -38 27 -65t64 -27q38 0 65 27t27 65t-27 65t-65 27q-37 0 -64 -27t-27 -65zM706 270q0 59 41.5 101t99.5 42q59 0 102 -42t43 -101q0 -58 -43 -99.5t-102 -41.5q-58 0 -99.5 41.5t-41.5 99.5zM721 270
q0 -51 37 -89t89 -38q53 0 90 38t37 89q0 52 -37 89.5t-90 37.5q-52 0 -89 -37.5t-37 -89.5z" />
    <glyph glyph-name="Z" unicode="Z" horiz-adv-x="1024" 
d="M675 110l-437 1v436l124 -124l237 235l187 -187l-235 -237z" />
    <glyph glyph-name="bracketleft" unicode="[" horiz-adv-x="1024" 
d="M28 248q0 50 34.5 85.5t84.5 35.5t85.5 -35.5t35.5 -85.5t-35.5 -84.5t-85.5 -34.5t-84.5 34.5t-34.5 84.5zM38 248q0 -44 32.5 -76t76.5 -32t76 32t32 76t-32 76t-76 32t-76.5 -32t-32.5 -76zM49 248q0 39 28.5 68t69.5 29q38 0 67.5 -29t29.5 -68q0 -42 -29.5 -69
t-67.5 -27q-41 0 -69.5 27t-28.5 69zM68 248q0 -32 23.5 -54t55.5 -22q31 0 55 22t24 54t-24 55t-55 23q-32 0 -55.5 -23t-23.5 -55zM252 422q0 42 29 70.5t68 28.5q40 0 69.5 -28.5t29.5 -70.5q0 -39 -29.5 -68t-69.5 -29q-39 0 -68 29t-29 68zM270 422q0 -31 23.5 -54
t55.5 -23t55.5 23t23.5 54q0 33 -23.5 56.5t-55.5 23.5t-55.5 -23.5t-23.5 -56.5zM229 422q0 51 35.5 87.5t84.5 36.5q51 0 87 -36.5t36 -87.5q0 -49 -36 -84t-87 -35q-49 0 -84.5 35t-35.5 84zM242 422q0 -43 31.5 -74.5t75.5 -31.5t76 31.5t32 74.5q0 47 -32 78t-76 31
t-75.5 -31t-31.5 -78zM510 514q0 41 29 69.5t68 28.5q41 0 69.5 -28.5t28.5 -69.5q0 -40 -28.5 -68.5t-69.5 -28.5q-39 0 -68 28.5t-29 68.5zM486 514q0 51 35.5 88t85.5 37t87.5 -37t37.5 -88q0 -50 -37.5 -85t-87.5 -35t-85.5 35t-35.5 85zM499 514q0 -43 32.5 -75
t75.5 -32q45 0 76.5 32t31.5 75q0 46 -31.5 77t-76.5 31q-43 0 -75.5 -31t-32.5 -77zM774 434q0 41 29 69.5t68 28.5q41 0 69.5 -28.5t28.5 -69.5q0 -40 -28.5 -68.5t-69.5 -28.5q-39 0 -68 28.5t-29 68.5zM793 434q0 -31 23.5 -54.5t54.5 -23.5q33 0 56 23.5t23 54.5
q0 32 -23 55.5t-56 23.5q-31 0 -54.5 -23.5t-23.5 -55.5zM750 434q0 51 35.5 88t85.5 37t87.5 -37t37.5 -88q0 -50 -37.5 -85t-87.5 -35t-85.5 35t-35.5 85zM763 434q0 -43 32.5 -75t75.5 -32q45 0 76.5 32t31.5 75q0 46 -31.5 77t-76.5 31q-43 0 -75.5 -31t-32.5 -77z" />
    <glyph glyph-name="backslash" unicode="\" horiz-adv-x="1024" 
d="M28 248q0 50 34.5 85.5t84.5 35.5t85.5 -35.5t35.5 -85.5t-35.5 -84.5t-85.5 -34.5t-84.5 34.5t-34.5 84.5zM38 248q0 -44 32.5 -76t76.5 -32t76 32t32 76t-32 76t-76 32t-76.5 -32t-32.5 -76zM49 248q0 39 28.5 68t69.5 29q38 0 67.5 -29t29.5 -68q0 -42 -29.5 -69
t-67.5 -27q-41 0 -69.5 27t-28.5 69zM68 248q0 -32 23.5 -54t55.5 -22q31 0 55 22t24 54t-24 55t-55 23q-32 0 -55.5 -23t-23.5 -55zM252 422q0 42 29 70.5t68 28.5q40 0 69.5 -28.5t29.5 -70.5q0 -39 -29.5 -68t-69.5 -29q-39 0 -68 29t-29 68zM270 422q0 -31 23.5 -54
t55.5 -23t55.5 23t23.5 54q0 33 -23.5 56.5t-55.5 23.5t-55.5 -23.5t-23.5 -56.5zM229 422q0 51 35.5 87.5t84.5 36.5q51 0 87 -36.5t36 -87.5q0 -49 -36 -84t-87 -35q-49 0 -84.5 35t-35.5 84zM242 422q0 -43 31.5 -74.5t75.5 -31.5t76 31.5t32 74.5q0 47 -32 78t-76 31
t-75.5 -31t-31.5 -78zM510 514q0 41 29 69.5t68 28.5q41 0 69.5 -28.5t28.5 -69.5q0 -40 -28.5 -68.5t-69.5 -28.5q-39 0 -68 28.5t-29 68.5zM486 514q0 51 35.5 88t85.5 37t87.5 -37t37.5 -88q0 -50 -37.5 -85t-87.5 -35t-85.5 35t-35.5 85zM499 514q0 -43 32.5 -75
t75.5 -32q45 0 76.5 32t31.5 75q0 46 -31.5 77t-76.5 31q-43 0 -75.5 -31t-32.5 -77zM774 434q0 41 29 69.5t68 28.5q41 0 69.5 -28.5t28.5 -69.5q0 -40 -28.5 -68.5t-69.5 -28.5q-39 0 -68 28.5t-29 68.5zM750 434q0 51 35.5 88t85.5 37t87.5 -37t37.5 -88q0 -50 -37.5 -85
t-87.5 -35t-85.5 35t-35.5 85zM763 434q0 -43 32.5 -75t75.5 -32q45 0 76.5 32t31.5 75q0 46 -31.5 77t-76.5 31q-43 0 -75.5 -31t-32.5 -77z" />
    <glyph glyph-name="bracketright" unicode="]" horiz-adv-x="1024" 
d="M28 248q0 50 34.5 85.5t84.5 35.5t85.5 -35.5t35.5 -85.5t-35.5 -84.5t-85.5 -34.5t-84.5 34.5t-34.5 84.5zM38 248q0 -44 32.5 -76t76.5 -32t76 32t32 76t-32 76t-76 32t-76.5 -32t-32.5 -76zM49 248q0 39 28.5 68t69.5 29q38 0 67.5 -29t29.5 -68q0 -42 -29.5 -69
t-67.5 -27q-41 0 -69.5 27t-28.5 69zM252 422q0 42 29 70.5t68 28.5q40 0 69.5 -28.5t29.5 -70.5q0 -39 -29.5 -68t-69.5 -29q-39 0 -68 29t-29 68zM270 422q0 -31 23.5 -54t55.5 -23t55.5 23t23.5 54q0 33 -23.5 56.5t-55.5 23.5t-55.5 -23.5t-23.5 -56.5zM229 422
q0 51 35.5 87.5t84.5 36.5q51 0 87 -36.5t36 -87.5q0 -49 -36 -84t-87 -35q-49 0 -84.5 35t-35.5 84zM242 422q0 -43 31.5 -74.5t75.5 -31.5t76 31.5t32 74.5q0 47 -32 78t-76 31t-75.5 -31t-31.5 -78zM510 514q0 41 29 69.5t68 28.5q41 0 69.5 -28.5t28.5 -69.5
q0 -40 -28.5 -68.5t-69.5 -28.5q-39 0 -68 28.5t-29 68.5zM486 514q0 51 35.5 88t85.5 37t87.5 -37t37.5 -88q0 -50 -37.5 -85t-87.5 -35t-85.5 35t-35.5 85zM499 514q0 -43 32.5 -75t75.5 -32q45 0 76.5 32t31.5 75q0 46 -31.5 77t-76.5 31q-43 0 -75.5 -31t-32.5 -77z
M774 434q0 41 29 69.5t68 28.5q41 0 69.5 -28.5t28.5 -69.5q0 -40 -28.5 -68.5t-69.5 -28.5q-39 0 -68 28.5t-29 68.5zM793 434q0 -31 23.5 -54.5t54.5 -23.5q33 0 56 23.5t23 54.5q0 32 -23 55.5t-56 23.5q-31 0 -54.5 -23.5t-23.5 -55.5zM750 434q0 51 35.5 88t85.5 37
t87.5 -37t37.5 -88q0 -50 -37.5 -85t-87.5 -35t-85.5 35t-35.5 85zM763 434q0 -43 32.5 -75t75.5 -32q45 0 76.5 32t31.5 75q0 46 -31.5 77t-76.5 31q-43 0 -75.5 -31t-32.5 -77z" />
    <glyph glyph-name="asciicircum" unicode="^" horiz-adv-x="1024" 
d="M226 181q0 49 84 84t201 35t201 -35t84 -84v-13q99 -45 99 -105q0 -63 -113.5 -108.5t-270.5 -45.5q-159 0 -270 45.5t-111 108.5q0 60 96 105v13zM261 190q0 -37 73.5 -64.5t176.5 -27.5t176 27.5t73 64.5q0 38 -73 64t-176 26t-176.5 -26t-73.5 -64zM712 99
q-84 -36 -201 -36t-202 36q-29 12 -48 25v-1q0 -37 73.5 -64t176.5 -27t176 27t73 64v1q-18 -13 -48 -25zM796 115q0 -47 -84 -82t-201 -35t-201 35t-84 82v23q-49 -28 -49 -62q0 -53 98 -88t236 -35q136 0 235 35t99 88q0 34 -49 61v-22z" />
    <glyph glyph-name="underscore" unicode="_" horiz-adv-x="1024" 
d="M28 248q0 50 34.5 85.5t84.5 35.5t85.5 -35.5t35.5 -85.5t-35.5 -84.5t-85.5 -34.5t-84.5 34.5t-34.5 84.5zM38 248q0 -44 32.5 -76t76.5 -32t76 32t32 76t-32 76t-76 32t-76.5 -32t-32.5 -76zM49 248q0 39 28.5 68t69.5 29q38 0 67.5 -29t29.5 -68q0 -42 -29.5 -69
t-67.5 -27q-41 0 -69.5 27t-28.5 69zM68 248q0 -32 23.5 -54t55.5 -22q31 0 55 22t24 54t-24 55t-55 23q-32 0 -55.5 -23t-23.5 -55zM252 422q0 42 29 70.5t68 28.5q40 0 69.5 -28.5t29.5 -70.5q0 -39 -29.5 -68t-69.5 -29q-39 0 -68 29t-29 68zM270 422q0 -31 23.5 -54
t55.5 -23t55.5 23t23.5 54q0 33 -23.5 56.5t-55.5 23.5t-55.5 -23.5t-23.5 -56.5zM229 422q0 51 35.5 87.5t84.5 36.5q51 0 87 -36.5t36 -87.5q0 -49 -36 -84t-87 -35q-49 0 -84.5 35t-35.5 84zM242 422q0 -43 31.5 -74.5t75.5 -31.5t76 31.5t32 74.5q0 47 -32 78t-76 31
t-75.5 -31t-31.5 -78zM510 514q0 41 29 69.5t68 28.5q41 0 69.5 -28.5t28.5 -69.5q0 -40 -28.5 -68.5t-69.5 -28.5q-39 0 -68 28.5t-29 68.5zM529 514q0 -31 23.5 -54.5t54.5 -23.5q33 0 56 23.5t23 54.5q0 32 -23 55.5t-56 23.5q-31 0 -54.5 -23.5t-23.5 -55.5zM486 514
q0 51 35.5 88t85.5 37t87.5 -37t37.5 -88q0 -50 -37.5 -85t-87.5 -35t-85.5 35t-35.5 85zM499 514q0 -43 32.5 -75t75.5 -32q45 0 76.5 32t31.5 75q0 46 -31.5 77t-76.5 31q-43 0 -75.5 -31t-32.5 -77zM774 434q0 41 29 69.5t68 28.5q41 0 69.5 -28.5t28.5 -69.5
q0 -40 -28.5 -68.5t-69.5 -28.5q-39 0 -68 28.5t-29 68.5zM793 434q0 -31 23.5 -54.5t54.5 -23.5q33 0 56 23.5t23 54.5q0 32 -23 55.5t-56 23.5q-31 0 -54.5 -23.5t-23.5 -55.5zM750 434q0 51 35.5 88t85.5 37t87.5 -37t37.5 -88q0 -50 -37.5 -85t-87.5 -35t-85.5 35
t-35.5 85zM763 434q0 -43 32.5 -75t75.5 -32q45 0 76.5 32t31.5 75q0 46 -31.5 77t-76.5 31q-43 0 -75.5 -31t-32.5 -77z" />
    <glyph glyph-name="grave" unicode="`" horiz-adv-x="1024" 
d="M63 264q0 58 41 99.5t100 41.5q58 0 99.5 -41.5t41.5 -99.5q0 -59 -41.5 -100t-99.5 -41q-59 0 -100 41t-41 100zM77 264q0 -52 37.5 -89t89.5 -37q51 0 88.5 37t37.5 89q0 50 -37.5 88t-88.5 38q-52 0 -89.5 -38t-37.5 -88zM89 264q0 45 33 79t82 34q44 0 78.5 -34
t34.5 -79q0 -50 -34.5 -81t-78.5 -31q-49 0 -82 31t-33 81zM111 264q0 -39 27 -64.5t66 -25.5q36 0 63.5 25.5t27.5 64.5q0 36 -27.5 63.5t-63.5 27.5q-39 0 -66 -27.5t-27 -63.5zM382 468q0 48 33.5 81.5t80.5 33.5t81 -33.5t34 -81.5q0 -46 -34 -80t-81 -34t-80.5 34
t-33.5 80zM355 468q0 59 41.5 102t99.5 43q59 0 101 -43t42 -102q0 -58 -42 -99.5t-101 -41.5q-58 0 -99.5 41.5t-41.5 99.5zM370 468q0 -51 37 -88.5t89 -37.5t89 37.5t37 88.5q0 54 -37 90.5t-89 36.5t-89 -36.5t-37 -90.5zM703 500q0 48 33.5 81.5t80.5 33.5t80.5 -33.5
t33.5 -81.5q0 -46 -33.5 -80t-80.5 -34t-80.5 34t-33.5 80zM725 500q0 -37 27.5 -64t64.5 -27q38 0 64.5 27t26.5 64q0 38 -26.5 65t-64.5 27q-37 0 -64.5 -27t-27.5 -65zM675 500q0 59 41.5 102t100.5 43q58 0 101 -43t43 -102q0 -58 -43 -99.5t-101 -41.5
q-59 0 -100.5 41.5t-41.5 99.5zM690 500q0 -51 37.5 -88.5t89.5 -37.5t89 37.5t37 88.5q0 54 -37 90.5t-89 36.5t-89.5 -36.5t-37.5 -90.5z" />
    <glyph glyph-name="a" unicode="a" horiz-adv-x="1024" 
d="M544 725v-196h296v-291h-296v-195l-360 340zM509 643l-274 -260l274 -259v148h295v223h-295v148z" />
    <glyph glyph-name="b" unicode="b" horiz-adv-x="1024" 
d="M161 512q0 55 40 95.5t98 40.5q55 0 96 -40.5t41 -95.5q0 -58 -41 -98t-96 -40q-58 0 -98 40t-40 98zM129 512q0 70 50 120t120 50t120 -50t50 -120q0 -71 -50 -120.5t-120 -49.5t-120 49.5t-50 120.5zM147 512q0 -63 44.5 -107.5t107.5 -44.5q62 0 106.5 44.5
t44.5 107.5q0 61 -44.5 106t-106.5 45q-63 0 -107.5 -45t-44.5 -106zM513 643q0 56 40 96.5t97 40.5q56 0 96.5 -40.5t40.5 -96.5q0 -57 -40.5 -97t-96.5 -40q-57 0 -97 40t-40 97zM480 643q0 70 50 120.5t120 50.5t120.5 -50.5t50.5 -120.5t-50.5 -120t-120.5 -50t-120 50
t-50 120zM498 643q0 -62 44.5 -107t107.5 -45q62 0 106.5 45t44.5 107t-44.5 106.5t-106.5 44.5q-63 0 -107.5 -44.5t-44.5 -106.5zM235 113q0 55 40 95.5t98 40.5q55 0 96 -40.5t41 -95.5q0 -58 -41 -98t-96 -40q-58 0 -98 40t-40 98zM262 113q0 -46 32.5 -78.5t78.5 -32.5
q44 0 76.5 32.5t32.5 78.5q0 44 -32.5 76.5t-76.5 32.5q-46 0 -78.5 -32.5t-32.5 -76.5zM203 113q0 70 50 120t120 50t120 -50t50 -120q0 -71 -50 -120.5t-120 -49.5t-120 49.5t-50 120.5zM221 113q0 -63 44.5 -107.5t107.5 -44.5q62 0 106.5 44.5t44.5 107.5
q0 61 -44.5 106t-106.5 45q-63 0 -107.5 -45t-44.5 -106zM587 244q0 56 40 96.5t97 40.5q56 0 96.5 -40.5t40.5 -96.5q0 -57 -40.5 -97t-96.5 -40q-57 0 -97 40t-40 97zM554 244q0 70 50 120.5t120 50.5t120.5 -50.5t50.5 -120.5t-50.5 -120t-120.5 -50t-120 50t-50 120z
M572 244q0 -62 44.5 -107t107.5 -45q62 0 106.5 45t44.5 107t-44.5 106.5t-106.5 44.5q-63 0 -107.5 -44.5t-44.5 -106.5zM188 512q0 -46 32.5 -78.5t78.5 -32.5q44 0 76.5 32.5t32.5 78.5q0 44 -32.5 76.5t-76.5 32.5q-46 0 -78.5 -32.5t-32.5 -76.5z" />
    <glyph glyph-name="c" unicode="c" horiz-adv-x="1024" 
d="M302 109l139 139l-209 210l205 206l211 -209l141 142v-488h-487zM385 143h368v368l-105 -105l-209 209l-158 -158l209 -210z" />
    <glyph glyph-name="d" unicode="d" horiz-adv-x="1024" 
d="M480 725l360 -342l-360 -340v195h-296v291h296v196zM515 643v-148h-295v-223h295v-148l274 259z" />
    <glyph glyph-name="e" unicode="e" horiz-adv-x="1024" 
d="M302 660h487v-488l-141 142l-211 -209l-205 206l209 210zM385 626l105 -104l-209 -210l158 -158l209 209l105 -105v368h-368z" />
    <glyph glyph-name="f" unicode="f" horiz-adv-x="1024" 
d="M161 512q0 55 40 95.5t98 40.5q55 0 96 -40.5t41 -95.5q0 -58 -41 -98t-96 -40q-58 0 -98 40t-40 98zM129 512q0 70 50 120t120 50t120 -50t50 -120q0 -71 -50 -120.5t-120 -49.5t-120 49.5t-50 120.5zM147 512q0 -63 44.5 -107.5t107.5 -44.5q62 0 106.5 44.5
t44.5 107.5q0 61 -44.5 106t-106.5 45q-63 0 -107.5 -45t-44.5 -106zM513 643q0 56 40 96.5t97 40.5q56 0 96.5 -40.5t40.5 -96.5q0 -57 -40.5 -97t-96.5 -40q-57 0 -97 40t-40 97zM540 643q0 -45 32.5 -77.5t77.5 -32.5t77.5 32.5t32.5 77.5t-32.5 77.5t-77.5 32.5
t-77.5 -32.5t-32.5 -77.5zM480 643q0 70 50 120.5t120 50.5t120.5 -50.5t50.5 -120.5t-50.5 -120t-120.5 -50t-120 50t-50 120zM498 643q0 -62 44.5 -107t107.5 -45q62 0 106.5 45t44.5 107t-44.5 106.5t-106.5 44.5q-63 0 -107.5 -44.5t-44.5 -106.5zM235 113q0 55 40 95.5
t98 40.5q55 0 96 -40.5t41 -95.5q0 -58 -41 -98t-96 -40q-58 0 -98 40t-40 98zM203 113q0 70 50 120t120 50t120 -50t50 -120q0 -71 -50 -120.5t-120 -49.5t-120 49.5t-50 120.5zM221 113q0 -63 44.5 -107.5t107.5 -44.5q62 0 106.5 44.5t44.5 107.5q0 61 -44.5 106
t-106.5 45q-63 0 -107.5 -45t-44.5 -106zM587 244q0 56 40 96.5t97 40.5q56 0 96.5 -40.5t40.5 -96.5q0 -57 -40.5 -97t-96.5 -40q-57 0 -97 40t-40 97zM614 244q0 -45 32.5 -77.5t77.5 -32.5t77.5 32.5t32.5 77.5t-32.5 77.5t-77.5 32.5t-77.5 -32.5t-32.5 -77.5zM554 244
q0 70 50 120.5t120 50.5t120.5 -50.5t50.5 -120.5t-50.5 -120t-120.5 -50t-120 50t-50 120zM572 244q0 -62 44.5 -107t107.5 -45q62 0 106.5 45t44.5 107t-44.5 106.5t-106.5 44.5q-63 0 -107.5 -44.5t-44.5 -106.5zM188 512q0 -46 32.5 -78.5t78.5 -32.5q44 0 76.5 32.5
t32.5 78.5q0 44 -32.5 76.5t-76.5 32.5q-46 0 -78.5 -32.5t-32.5 -76.5z" />
    <glyph glyph-name="g" unicode="g" horiz-adv-x="1024" 
d="M161 512q0 55 40 95.5t98 40.5q55 0 96 -40.5t41 -95.5q0 -58 -41 -98t-96 -40q-58 0 -98 40t-40 98zM129 512q0 70 50 120t120 50t120 -50t50 -120q0 -71 -50 -120.5t-120 -49.5t-120 49.5t-50 120.5zM147 512q0 -63 44.5 -107.5t107.5 -44.5q62 0 106.5 44.5
t44.5 107.5q0 61 -44.5 106t-106.5 45q-63 0 -107.5 -45t-44.5 -106zM513 643q0 56 40 96.5t97 40.5q56 0 96.5 -40.5t40.5 -96.5q0 -57 -40.5 -97t-96.5 -40q-57 0 -97 40t-40 97zM540 643q0 -45 32.5 -77.5t77.5 -32.5t77.5 32.5t32.5 77.5t-32.5 77.5t-77.5 32.5
t-77.5 -32.5t-32.5 -77.5zM480 643q0 70 50 120.5t120 50.5t120.5 -50.5t50.5 -120.5t-50.5 -120t-120.5 -50t-120 50t-50 120zM498 643q0 -62 44.5 -107t107.5 -45q62 0 106.5 45t44.5 107t-44.5 106.5t-106.5 44.5q-63 0 -107.5 -44.5t-44.5 -106.5zM235 113q0 55 40 95.5
t98 40.5q55 0 96 -40.5t41 -95.5q0 -58 -41 -98t-96 -40q-58 0 -98 40t-40 98zM262 113q0 -46 32.5 -78.5t78.5 -32.5q44 0 76.5 32.5t32.5 78.5q0 44 -32.5 76.5t-76.5 32.5q-46 0 -78.5 -32.5t-32.5 -76.5zM203 113q0 70 50 120t120 50t120 -50t50 -120q0 -71 -50 -120.5
t-120 -49.5t-120 49.5t-50 120.5zM221 113q0 -63 44.5 -107.5t107.5 -44.5q62 0 106.5 44.5t44.5 107.5q0 61 -44.5 106t-106.5 45q-63 0 -107.5 -45t-44.5 -106zM587 244q0 56 40 96.5t97 40.5q56 0 96.5 -40.5t40.5 -96.5q0 -57 -40.5 -97t-96.5 -40q-57 0 -97 40t-40 97z
M554 244q0 70 50 120.5t120 50.5t120.5 -50.5t50.5 -120.5t-50.5 -120t-120.5 -50t-120 50t-50 120zM572 244q0 -62 44.5 -107t107.5 -45q62 0 106.5 45t44.5 107t-44.5 106.5t-106.5 44.5q-63 0 -107.5 -44.5t-44.5 -106.5zM188 512q0 -46 32.5 -78.5t78.5 -32.5
q44 0 76.5 32.5t32.5 78.5q0 44 -32.5 76.5t-76.5 32.5q-46 0 -78.5 -32.5t-32.5 -76.5z" />
    <glyph glyph-name="h" unicode="h" horiz-adv-x="1024" 
d="M161 512q0 55 40 95.5t98 40.5q55 0 96 -40.5t41 -95.5q0 -58 -41 -98t-96 -40q-58 0 -98 40t-40 98zM129 512q0 70 50 120t120 50t120 -50t50 -120q0 -71 -50 -120.5t-120 -49.5t-120 49.5t-50 120.5zM147 512q0 -63 44.5 -107.5t107.5 -44.5q62 0 106.5 44.5
t44.5 107.5q0 61 -44.5 106t-106.5 45q-63 0 -107.5 -45t-44.5 -106zM513 643q0 56 40 96.5t97 40.5q56 0 96.5 -40.5t40.5 -96.5q0 -57 -40.5 -97t-96.5 -40q-57 0 -97 40t-40 97zM540 643q0 -45 32.5 -77.5t77.5 -32.5t77.5 32.5t32.5 77.5t-32.5 77.5t-77.5 32.5
t-77.5 -32.5t-32.5 -77.5zM480 643q0 70 50 120.5t120 50.5t120.5 -50.5t50.5 -120.5t-50.5 -120t-120.5 -50t-120 50t-50 120zM498 643q0 -62 44.5 -107t107.5 -45q62 0 106.5 45t44.5 107t-44.5 106.5t-106.5 44.5q-63 0 -107.5 -44.5t-44.5 -106.5zM235 113q0 55 40 95.5
t98 40.5q55 0 96 -40.5t41 -95.5q0 -58 -41 -98t-96 -40q-58 0 -98 40t-40 98zM203 113q0 70 50 120t120 50t120 -50t50 -120q0 -71 -50 -120.5t-120 -49.5t-120 49.5t-50 120.5zM221 113q0 -63 44.5 -107.5t107.5 -44.5q62 0 106.5 44.5t44.5 107.5q0 61 -44.5 106
t-106.5 45q-63 0 -107.5 -45t-44.5 -106zM587 244q0 56 40 96.5t97 40.5q56 0 96.5 -40.5t40.5 -96.5q0 -57 -40.5 -97t-96.5 -40q-57 0 -97 40t-40 97zM554 244q0 70 50 120.5t120 50.5t120.5 -50.5t50.5 -120.5t-50.5 -120t-120.5 -50t-120 50t-50 120zM572 244
q0 -62 44.5 -107t107.5 -45q62 0 106.5 45t44.5 107t-44.5 106.5t-106.5 44.5q-63 0 -107.5 -44.5t-44.5 -106.5zM188 512q0 -46 32.5 -78.5t78.5 -32.5q44 0 76.5 32.5t32.5 78.5q0 44 -32.5 76.5t-76.5 32.5q-46 0 -78.5 -32.5t-32.5 -76.5z" />
    <glyph glyph-name="i" unicode="i" horiz-adv-x="1024" 
d="M161 512q0 55 40 95.5t98 40.5q55 0 96 -40.5t41 -95.5q0 -58 -41 -98t-96 -40q-58 0 -98 40t-40 98zM129 512q0 70 50 120t120 50t120 -50t50 -120q0 -71 -50 -120.5t-120 -49.5t-120 49.5t-50 120.5zM147 512q0 -63 44.5 -107.5t107.5 -44.5q62 0 106.5 44.5
t44.5 107.5q0 61 -44.5 106t-106.5 45q-63 0 -107.5 -45t-44.5 -106zM513 643q0 56 40 96.5t97 40.5q56 0 96.5 -40.5t40.5 -96.5q0 -57 -40.5 -97t-96.5 -40q-57 0 -97 40t-40 97zM540 643q0 -45 32.5 -77.5t77.5 -32.5t77.5 32.5t32.5 77.5t-32.5 77.5t-77.5 32.5
t-77.5 -32.5t-32.5 -77.5zM480 643q0 70 50 120.5t120 50.5t120.5 -50.5t50.5 -120.5t-50.5 -120t-120.5 -50t-120 50t-50 120zM498 643q0 -62 44.5 -107t107.5 -45q62 0 106.5 45t44.5 107t-44.5 106.5t-106.5 44.5q-63 0 -107.5 -44.5t-44.5 -106.5zM235 113q0 55 40 95.5
t98 40.5q55 0 96 -40.5t41 -95.5q0 -58 -41 -98t-96 -40q-58 0 -98 40t-40 98zM262 113q0 -46 32.5 -78.5t78.5 -32.5q44 0 76.5 32.5t32.5 78.5q0 44 -32.5 76.5t-76.5 32.5q-46 0 -78.5 -32.5t-32.5 -76.5zM203 113q0 70 50 120t120 50t120 -50t50 -120q0 -71 -50 -120.5
t-120 -49.5t-120 49.5t-50 120.5zM221 113q0 -63 44.5 -107.5t107.5 -44.5q62 0 106.5 44.5t44.5 107.5q0 61 -44.5 106t-106.5 45q-63 0 -107.5 -45t-44.5 -106zM587 244q0 56 40 96.5t97 40.5q56 0 96.5 -40.5t40.5 -96.5q0 -57 -40.5 -97t-96.5 -40q-57 0 -97 40t-40 97z
M614 244q0 -45 32.5 -77.5t77.5 -32.5t77.5 32.5t32.5 77.5t-32.5 77.5t-77.5 32.5t-77.5 -32.5t-32.5 -77.5zM554 244q0 70 50 120.5t120 50.5t120.5 -50.5t50.5 -120.5t-50.5 -120t-120.5 -50t-120 50t-50 120zM572 244q0 -62 44.5 -107t107.5 -45q62 0 106.5 45t44.5 107
t-44.5 106.5t-106.5 44.5q-63 0 -107.5 -44.5t-44.5 -106.5zM188 512q0 -46 32.5 -78.5t78.5 -32.5q44 0 76.5 32.5t32.5 78.5q0 44 -32.5 76.5t-76.5 32.5q-46 0 -78.5 -32.5t-32.5 -76.5z" />
    <glyph glyph-name="j" unicode="j" horiz-adv-x="1024" 
d="M161 512q0 55 40 95.5t98 40.5q55 0 96 -40.5t41 -95.5q0 -58 -41 -98t-96 -40q-58 0 -98 40t-40 98zM129 512q0 70 50 120t120 50t120 -50t50 -120q0 -71 -50 -120.5t-120 -49.5t-120 49.5t-50 120.5zM147 512q0 -63 44.5 -107.5t107.5 -44.5q62 0 106.5 44.5
t44.5 107.5q0 61 -44.5 106t-106.5 45q-63 0 -107.5 -45t-44.5 -106zM513 643q0 56 40 96.5t97 40.5q56 0 96.5 -40.5t40.5 -96.5q0 -57 -40.5 -97t-96.5 -40q-57 0 -97 40t-40 97zM480 643q0 70 50 120.5t120 50.5t120.5 -50.5t50.5 -120.5t-50.5 -120t-120.5 -50t-120 50
t-50 120zM498 643q0 -62 44.5 -107t107.5 -45q62 0 106.5 45t44.5 107t-44.5 106.5t-106.5 44.5q-63 0 -107.5 -44.5t-44.5 -106.5zM235 113q0 55 40 95.5t98 40.5q55 0 96 -40.5t41 -95.5q0 -58 -41 -98t-96 -40q-58 0 -98 40t-40 98zM203 113q0 70 50 120t120 50t120 -50
t50 -120q0 -71 -50 -120.5t-120 -49.5t-120 49.5t-50 120.5zM221 113q0 -63 44.5 -107.5t107.5 -44.5q62 0 106.5 44.5t44.5 107.5q0 61 -44.5 106t-106.5 45q-63 0 -107.5 -45t-44.5 -106zM587 244q0 56 40 96.5t97 40.5q56 0 96.5 -40.5t40.5 -96.5q0 -57 -40.5 -97
t-96.5 -40q-57 0 -97 40t-40 97zM614 244q0 -45 32.5 -77.5t77.5 -32.5t77.5 32.5t32.5 77.5t-32.5 77.5t-77.5 32.5t-77.5 -32.5t-32.5 -77.5zM554 244q0 70 50 120.5t120 50.5t120.5 -50.5t50.5 -120.5t-50.5 -120t-120.5 -50t-120 50t-50 120zM572 244q0 -62 44.5 -107
t107.5 -45q62 0 106.5 45t44.5 107t-44.5 106.5t-106.5 44.5q-63 0 -107.5 -44.5t-44.5 -106.5zM188 512q0 -46 32.5 -78.5t78.5 -32.5q44 0 76.5 32.5t32.5 78.5q0 44 -32.5 76.5t-76.5 32.5q-46 0 -78.5 -32.5t-32.5 -76.5z" />
    <glyph glyph-name="k" unicode="k" horiz-adv-x="1024" 
d="M161 512q0 55 40 95.5t98 40.5q55 0 96 -40.5t41 -95.5q0 -58 -41 -98t-96 -40q-58 0 -98 40t-40 98zM129 512q0 70 50 120t120 50t120 -50t50 -120q0 -71 -50 -120.5t-120 -49.5t-120 49.5t-50 120.5zM147 512q0 -63 44.5 -107.5t107.5 -44.5q62 0 106.5 44.5
t44.5 107.5q0 61 -44.5 106t-106.5 45q-63 0 -107.5 -45t-44.5 -106zM513 643q0 56 40 96.5t97 40.5q56 0 96.5 -40.5t40.5 -96.5q0 -57 -40.5 -97t-96.5 -40q-57 0 -97 40t-40 97zM540 643q0 -45 32.5 -77.5t77.5 -32.5t77.5 32.5t32.5 77.5t-32.5 77.5t-77.5 32.5
t-77.5 -32.5t-32.5 -77.5zM480 643q0 70 50 120.5t120 50.5t120.5 -50.5t50.5 -120.5t-50.5 -120t-120.5 -50t-120 50t-50 120zM498 643q0 -62 44.5 -107t107.5 -45q62 0 106.5 45t44.5 107t-44.5 106.5t-106.5 44.5q-63 0 -107.5 -44.5t-44.5 -106.5zM235 113q0 55 40 95.5
t98 40.5q55 0 96 -40.5t41 -95.5q0 -58 -41 -98t-96 -40q-58 0 -98 40t-40 98zM203 113q0 70 50 120t120 50t120 -50t50 -120q0 -71 -50 -120.5t-120 -49.5t-120 49.5t-50 120.5zM221 113q0 -63 44.5 -107.5t107.5 -44.5q62 0 106.5 44.5t44.5 107.5q0 61 -44.5 106
t-106.5 45q-63 0 -107.5 -45t-44.5 -106zM587 244q0 56 40 96.5t97 40.5q56 0 96.5 -40.5t40.5 -96.5q0 -57 -40.5 -97t-96.5 -40q-57 0 -97 40t-40 97zM554 244q0 70 50 120.5t120 50.5t120.5 -50.5t50.5 -120.5t-50.5 -120t-120.5 -50t-120 50t-50 120zM572 244
q0 -62 44.5 -107t107.5 -45q62 0 106.5 45t44.5 107t-44.5 106.5t-106.5 44.5q-63 0 -107.5 -44.5t-44.5 -106.5z" />
    <glyph glyph-name="l" unicode="l" horiz-adv-x="1024" 
d="M161 512q0 55 40 95.5t98 40.5q55 0 96 -40.5t41 -95.5q0 -58 -41 -98t-96 -40q-58 0 -98 40t-40 98zM129 512q0 70 50 120t120 50t120 -50t50 -120q0 -71 -50 -120.5t-120 -49.5t-120 49.5t-50 120.5zM147 512q0 -63 44.5 -107.5t107.5 -44.5q62 0 106.5 44.5
t44.5 107.5q0 61 -44.5 106t-106.5 45q-63 0 -107.5 -45t-44.5 -106zM513 643q0 56 40 96.5t97 40.5q56 0 96.5 -40.5t40.5 -96.5q0 -57 -40.5 -97t-96.5 -40q-57 0 -97 40t-40 97zM480 643q0 70 50 120.5t120 50.5t120.5 -50.5t50.5 -120.5t-50.5 -120t-120.5 -50t-120 50
t-50 120zM498 643q0 -62 44.5 -107t107.5 -45q62 0 106.5 45t44.5 107t-44.5 106.5t-106.5 44.5q-63 0 -107.5 -44.5t-44.5 -106.5zM235 113q0 55 40 95.5t98 40.5q55 0 96 -40.5t41 -95.5q0 -58 -41 -98t-96 -40q-58 0 -98 40t-40 98zM203 113q0 70 50 120t120 50t120 -50
t50 -120q0 -71 -50 -120.5t-120 -49.5t-120 49.5t-50 120.5zM221 113q0 -63 44.5 -107.5t107.5 -44.5q62 0 106.5 44.5t44.5 107.5q0 61 -44.5 106t-106.5 45q-63 0 -107.5 -45t-44.5 -106zM587 244q0 56 40 96.5t97 40.5q56 0 96.5 -40.5t40.5 -96.5q0 -57 -40.5 -97
t-96.5 -40q-57 0 -97 40t-40 97zM614 244q0 -45 32.5 -77.5t77.5 -32.5t77.5 32.5t32.5 77.5t-32.5 77.5t-77.5 32.5t-77.5 -32.5t-32.5 -77.5zM554 244q0 70 50 120.5t120 50.5t120.5 -50.5t50.5 -120.5t-50.5 -120t-120.5 -50t-120 50t-50 120zM572 244q0 -62 44.5 -107
t107.5 -45q62 0 106.5 45t44.5 107t-44.5 106.5t-106.5 44.5q-63 0 -107.5 -44.5t-44.5 -106.5z" />
    <glyph glyph-name="m" unicode="m" horiz-adv-x="1024" 
d="M161 512q0 55 40 95.5t98 40.5q55 0 96 -40.5t41 -95.5q0 -58 -41 -98t-96 -40q-58 0 -98 40t-40 98zM129 512q0 70 50 120t120 50t120 -50t50 -120q0 -71 -50 -120.5t-120 -49.5t-120 49.5t-50 120.5zM147 512q0 -63 44.5 -107.5t107.5 -44.5q62 0 106.5 44.5
t44.5 107.5q0 61 -44.5 106t-106.5 45q-63 0 -107.5 -45t-44.5 -106zM513 643q0 56 40 96.5t97 40.5q56 0 96.5 -40.5t40.5 -96.5q0 -57 -40.5 -97t-96.5 -40q-57 0 -97 40t-40 97zM480 643q0 70 50 120.5t120 50.5t120.5 -50.5t50.5 -120.5t-50.5 -120t-120.5 -50t-120 50
t-50 120zM498 643q0 -62 44.5 -107t107.5 -45q62 0 106.5 45t44.5 107t-44.5 106.5t-106.5 44.5q-63 0 -107.5 -44.5t-44.5 -106.5zM235 113q0 55 40 95.5t98 40.5q55 0 96 -40.5t41 -95.5q0 -58 -41 -98t-96 -40q-58 0 -98 40t-40 98zM203 113q0 70 50 120t120 50t120 -50
t50 -120q0 -71 -50 -120.5t-120 -49.5t-120 49.5t-50 120.5zM221 113q0 -63 44.5 -107.5t107.5 -44.5q62 0 106.5 44.5t44.5 107.5q0 61 -44.5 106t-106.5 45q-63 0 -107.5 -45t-44.5 -106zM587 244q0 56 40 96.5t97 40.5q56 0 96.5 -40.5t40.5 -96.5q0 -57 -40.5 -97
t-96.5 -40q-57 0 -97 40t-40 97zM554 244q0 70 50 120.5t120 50.5t120.5 -50.5t50.5 -120.5t-50.5 -120t-120.5 -50t-120 50t-50 120zM572 244q0 -62 44.5 -107t107.5 -45q62 0 106.5 45t44.5 107t-44.5 106.5t-106.5 44.5q-63 0 -107.5 -44.5t-44.5 -106.5zM188 512
q0 -46 32.5 -78.5t78.5 -32.5q44 0 76.5 32.5t32.5 78.5q0 44 -32.5 76.5t-76.5 32.5q-46 0 -78.5 -32.5t-32.5 -76.5z" />
    <glyph glyph-name="n" unicode="n" horiz-adv-x="1024" 
d="M161 512q0 55 40 95.5t98 40.5q55 0 96 -40.5t41 -95.5q0 -58 -41 -98t-96 -40q-58 0 -98 40t-40 98zM129 512q0 70 50 120t120 50t120 -50t50 -120q0 -71 -50 -120.5t-120 -49.5t-120 49.5t-50 120.5zM147 512q0 -63 44.5 -107.5t107.5 -44.5q62 0 106.5 44.5
t44.5 107.5q0 61 -44.5 106t-106.5 45q-63 0 -107.5 -45t-44.5 -106zM513 643q0 56 40 96.5t97 40.5q56 0 96.5 -40.5t40.5 -96.5q0 -57 -40.5 -97t-96.5 -40q-57 0 -97 40t-40 97zM480 643q0 70 50 120.5t120 50.5t120.5 -50.5t50.5 -120.5t-50.5 -120t-120.5 -50t-120 50
t-50 120zM498 643q0 -62 44.5 -107t107.5 -45q62 0 106.5 45t44.5 107t-44.5 106.5t-106.5 44.5q-63 0 -107.5 -44.5t-44.5 -106.5zM235 113q0 55 40 95.5t98 40.5q55 0 96 -40.5t41 -95.5q0 -58 -41 -98t-96 -40q-58 0 -98 40t-40 98zM203 113q0 70 50 120t120 50t120 -50
t50 -120q0 -71 -50 -120.5t-120 -49.5t-120 49.5t-50 120.5zM221 113q0 -63 44.5 -107.5t107.5 -44.5q62 0 106.5 44.5t44.5 107.5q0 61 -44.5 106t-106.5 45q-63 0 -107.5 -45t-44.5 -106zM587 244q0 56 40 96.5t97 40.5q56 0 96.5 -40.5t40.5 -96.5q0 -57 -40.5 -97
t-96.5 -40q-57 0 -97 40t-40 97zM554 244q0 70 50 120.5t120 50.5t120.5 -50.5t50.5 -120.5t-50.5 -120t-120.5 -50t-120 50t-50 120zM572 244q0 -62 44.5 -107t107.5 -45q62 0 106.5 45t44.5 107t-44.5 106.5t-106.5 44.5q-63 0 -107.5 -44.5t-44.5 -106.5z" />
    <glyph glyph-name="o" unicode="o" horiz-adv-x="1024" 
d="M161 512q0 55 40 95.5t98 40.5q55 0 96 -40.5t41 -95.5q0 -58 -41 -98t-96 -40q-58 0 -98 40t-40 98zM129 512q0 70 50 120t120 50t120 -50t50 -120q0 -71 -50 -120.5t-120 -49.5t-120 49.5t-50 120.5zM147 512q0 -63 44.5 -107.5t107.5 -44.5q62 0 106.5 44.5
t44.5 107.5q0 61 -44.5 106t-106.5 45q-63 0 -107.5 -45t-44.5 -106zM513 643q0 56 40 96.5t97 40.5q56 0 96.5 -40.5t40.5 -96.5q0 -57 -40.5 -97t-96.5 -40q-57 0 -97 40t-40 97zM480 643q0 70 50 120.5t120 50.5t120.5 -50.5t50.5 -120.5t-50.5 -120t-120.5 -50t-120 50
t-50 120zM498 643q0 -62 44.5 -107t107.5 -45q62 0 106.5 45t44.5 107t-44.5 106.5t-106.5 44.5q-63 0 -107.5 -44.5t-44.5 -106.5zM235 113q0 55 40 95.5t98 40.5q55 0 96 -40.5t41 -95.5q0 -58 -41 -98t-96 -40q-58 0 -98 40t-40 98zM262 113q0 -46 32.5 -78.5t78.5 -32.5
q44 0 76.5 32.5t32.5 78.5q0 44 -32.5 76.5t-76.5 32.5q-46 0 -78.5 -32.5t-32.5 -76.5zM203 113q0 70 50 120t120 50t120 -50t50 -120q0 -71 -50 -120.5t-120 -49.5t-120 49.5t-50 120.5zM221 113q0 -63 44.5 -107.5t107.5 -44.5q62 0 106.5 44.5t44.5 107.5
q0 61 -44.5 106t-106.5 45q-63 0 -107.5 -45t-44.5 -106zM587 244q0 56 40 96.5t97 40.5q56 0 96.5 -40.5t40.5 -96.5q0 -57 -40.5 -97t-96.5 -40q-57 0 -97 40t-40 97zM554 244q0 70 50 120.5t120 50.5t120.5 -50.5t50.5 -120.5t-50.5 -120t-120.5 -50t-120 50t-50 120z
M572 244q0 -62 44.5 -107t107.5 -45q62 0 106.5 45t44.5 107t-44.5 106.5t-106.5 44.5q-63 0 -107.5 -44.5t-44.5 -106.5z" />
    <glyph glyph-name="p" unicode="p" horiz-adv-x="1024" 
d="M28 248q0 50 34.5 85.5t84.5 35.5t85.5 -35.5t35.5 -85.5t-35.5 -84.5t-85.5 -34.5t-84.5 34.5t-34.5 84.5zM38 248q0 -44 32.5 -76t76.5 -32t76 32t32 76t-32 76t-76 32t-76.5 -32t-32.5 -76zM49 248q0 39 28.5 68t69.5 29q38 0 67.5 -29t29.5 -68q0 -42 -29.5 -69
t-67.5 -27q-41 0 -69.5 27t-28.5 69zM252 422q0 42 29 70.5t68 28.5q40 0 69.5 -28.5t29.5 -70.5q0 -39 -29.5 -68t-69.5 -29q-39 0 -68 29t-29 68zM270 422q0 -31 23.5 -54t55.5 -23t55.5 23t23.5 54q0 33 -23.5 56.5t-55.5 23.5t-55.5 -23.5t-23.5 -56.5zM229 422
q0 51 35.5 87.5t84.5 36.5q51 0 87 -36.5t36 -87.5q0 -49 -36 -84t-87 -35q-49 0 -84.5 35t-35.5 84zM242 422q0 -43 31.5 -74.5t75.5 -31.5t76 31.5t32 74.5q0 47 -32 78t-76 31t-75.5 -31t-31.5 -78zM510 514q0 41 29 69.5t68 28.5q41 0 69.5 -28.5t28.5 -69.5
q0 -40 -28.5 -68.5t-69.5 -28.5q-39 0 -68 28.5t-29 68.5zM529 514q0 -31 23.5 -54.5t54.5 -23.5q33 0 56 23.5t23 54.5q0 32 -23 55.5t-56 23.5q-31 0 -54.5 -23.5t-23.5 -55.5zM486 514q0 51 35.5 88t85.5 37t87.5 -37t37.5 -88q0 -50 -37.5 -85t-87.5 -35t-85.5 35
t-35.5 85zM499 514q0 -43 32.5 -75t75.5 -32q45 0 76.5 32t31.5 75q0 46 -31.5 77t-76.5 31q-43 0 -75.5 -31t-32.5 -77zM774 434q0 41 29 69.5t68 28.5q41 0 69.5 -28.5t28.5 -69.5q0 -40 -28.5 -68.5t-69.5 -28.5q-39 0 -68 28.5t-29 68.5zM793 434q0 -31 23.5 -54.5
t54.5 -23.5q33 0 56 23.5t23 54.5q0 32 -23 55.5t-56 23.5q-31 0 -54.5 -23.5t-23.5 -55.5zM750 434q0 51 35.5 88t85.5 37t87.5 -37t37.5 -88q0 -50 -37.5 -85t-87.5 -35t-85.5 35t-35.5 85zM763 434q0 -43 32.5 -75t75.5 -32q45 0 76.5 32t31.5 75q0 46 -31.5 77t-76.5 31
q-43 0 -75.5 -31t-32.5 -77z" />
    <glyph glyph-name="q" unicode="q" horiz-adv-x="1024" 
d="M723 660l-139 -139l209 -210l-205 -206l-211 209l-141 -142v488h487zM640 626h-368v-368l105 105l209 -209l158 158l-209 210z" />
    <glyph glyph-name="r" unicode="r" horiz-adv-x="1024" 
d="M161 512q0 55 40 95.5t98 40.5q55 0 96 -40.5t41 -95.5q0 -58 -41 -98t-96 -40q-58 0 -98 40t-40 98zM129 512q0 70 50 120t120 50t120 -50t50 -120q0 -71 -50 -120.5t-120 -49.5t-120 49.5t-50 120.5zM147 512q0 -63 44.5 -107.5t107.5 -44.5q62 0 106.5 44.5
t44.5 107.5q0 61 -44.5 106t-106.5 45q-63 0 -107.5 -45t-44.5 -106zM513 643q0 56 40 96.5t97 40.5q56 0 96.5 -40.5t40.5 -96.5q0 -57 -40.5 -97t-96.5 -40q-57 0 -97 40t-40 97zM540 643q0 -45 32.5 -77.5t77.5 -32.5t77.5 32.5t32.5 77.5t-32.5 77.5t-77.5 32.5
t-77.5 -32.5t-32.5 -77.5zM480 643q0 70 50 120.5t120 50.5t120.5 -50.5t50.5 -120.5t-50.5 -120t-120.5 -50t-120 50t-50 120zM498 643q0 -62 44.5 -107t107.5 -45q62 0 106.5 45t44.5 107t-44.5 106.5t-106.5 44.5q-63 0 -107.5 -44.5t-44.5 -106.5zM235 113q0 55 40 95.5
t98 40.5q55 0 96 -40.5t41 -95.5q0 -58 -41 -98t-96 -40q-58 0 -98 40t-40 98zM262 113q0 -46 32.5 -78.5t78.5 -32.5q44 0 76.5 32.5t32.5 78.5q0 44 -32.5 76.5t-76.5 32.5q-46 0 -78.5 -32.5t-32.5 -76.5zM203 113q0 70 50 120t120 50t120 -50t50 -120q0 -71 -50 -120.5
t-120 -49.5t-120 49.5t-50 120.5zM221 113q0 -63 44.5 -107.5t107.5 -44.5q62 0 106.5 44.5t44.5 107.5q0 61 -44.5 106t-106.5 45q-63 0 -107.5 -45t-44.5 -106zM587 244q0 56 40 96.5t97 40.5q56 0 96.5 -40.5t40.5 -96.5q0 -57 -40.5 -97t-96.5 -40q-57 0 -97 40t-40 97z
M614 244q0 -45 32.5 -77.5t77.5 -32.5t77.5 32.5t32.5 77.5t-32.5 77.5t-77.5 32.5t-77.5 -32.5t-32.5 -77.5zM554 244q0 70 50 120.5t120 50.5t120.5 -50.5t50.5 -120.5t-50.5 -120t-120.5 -50t-120 50t-50 120zM572 244q0 -62 44.5 -107t107.5 -45q62 0 106.5 45t44.5 107
t-44.5 106.5t-106.5 44.5q-63 0 -107.5 -44.5t-44.5 -106.5z" />
    <glyph glyph-name="s" unicode="s" horiz-adv-x="1024" 
d="M74 375q0 179 128 309q122 117 285 125v-91q-126 -7 -220 -101q-101 -101 -101 -242q0 -143 100.5 -244t244.5 -101q141 0 243 101t102 244q0 141 -101 242q-37 37 -80 62l-39 -76l-58 174l178 56l-38 -73q54 -30 102 -76q130 -130 130 -309q0 -181 -130 -310t-309 -129
q-181 0 -309 129t-128 310z" />
    <glyph glyph-name="t" unicode="t" horiz-adv-x="1024" 
d="M161 512q0 55 40 95.5t98 40.5q55 0 96 -40.5t41 -95.5q0 -58 -41 -98t-96 -40q-58 0 -98 40t-40 98zM129 512q0 70 50 120t120 50t120 -50t50 -120q0 -71 -50 -120.5t-120 -49.5t-120 49.5t-50 120.5zM147 512q0 -63 44.5 -107.5t107.5 -44.5q62 0 106.5 44.5
t44.5 107.5q0 61 -44.5 106t-106.5 45q-63 0 -107.5 -45t-44.5 -106zM513 643q0 56 40 96.5t97 40.5q56 0 96.5 -40.5t40.5 -96.5q0 -57 -40.5 -97t-96.5 -40q-57 0 -97 40t-40 97zM480 643q0 70 50 120.5t120 50.5t120.5 -50.5t50.5 -120.5t-50.5 -120t-120.5 -50t-120 50
t-50 120zM498 643q0 -62 44.5 -107t107.5 -45q62 0 106.5 45t44.5 107t-44.5 106.5t-106.5 44.5q-63 0 -107.5 -44.5t-44.5 -106.5zM235 113q0 55 40 95.5t98 40.5q55 0 96 -40.5t41 -95.5q0 -58 -41 -98t-96 -40q-58 0 -98 40t-40 98zM262 113q0 -46 32.5 -78.5t78.5 -32.5
q44 0 76.5 32.5t32.5 78.5q0 44 -32.5 76.5t-76.5 32.5q-46 0 -78.5 -32.5t-32.5 -76.5zM203 113q0 70 50 120t120 50t120 -50t50 -120q0 -71 -50 -120.5t-120 -49.5t-120 49.5t-50 120.5zM221 113q0 -63 44.5 -107.5t107.5 -44.5q62 0 106.5 44.5t44.5 107.5
q0 61 -44.5 106t-106.5 45q-63 0 -107.5 -45t-44.5 -106zM587 244q0 56 40 96.5t97 40.5q56 0 96.5 -40.5t40.5 -96.5q0 -57 -40.5 -97t-96.5 -40q-57 0 -97 40t-40 97zM614 244q0 -45 32.5 -77.5t77.5 -32.5t77.5 32.5t32.5 77.5t-32.5 77.5t-77.5 32.5t-77.5 -32.5
t-32.5 -77.5zM554 244q0 70 50 120.5t120 50.5t120.5 -50.5t50.5 -120.5t-50.5 -120t-120.5 -50t-120 50t-50 120zM572 244q0 -62 44.5 -107t107.5 -45q62 0 106.5 45t44.5 107t-44.5 106.5t-106.5 44.5q-63 0 -107.5 -44.5t-44.5 -106.5zM188 512q0 -46 32.5 -78.5
t78.5 -32.5q44 0 76.5 32.5t32.5 78.5q0 44 -32.5 76.5t-76.5 32.5q-46 0 -78.5 -32.5t-32.5 -76.5z" />
    <glyph glyph-name="u" unicode="u" horiz-adv-x="1024" 
d="M161 512q0 55 40 95.5t98 40.5q55 0 96 -40.5t41 -95.5q0 -58 -41 -98t-96 -40q-58 0 -98 40t-40 98zM129 512q0 70 50 120t120 50t120 -50t50 -120q0 -71 -50 -120.5t-120 -49.5t-120 49.5t-50 120.5zM147 512q0 -63 44.5 -107.5t107.5 -44.5q62 0 106.5 44.5
t44.5 107.5q0 61 -44.5 106t-106.5 45q-63 0 -107.5 -45t-44.5 -106zM513 643q0 56 40 96.5t97 40.5q56 0 96.5 -40.5t40.5 -96.5q0 -57 -40.5 -97t-96.5 -40q-57 0 -97 40t-40 97zM540 643q0 -45 32.5 -77.5t77.5 -32.5t77.5 32.5t32.5 77.5t-32.5 77.5t-77.5 32.5
t-77.5 -32.5t-32.5 -77.5zM480 643q0 70 50 120.5t120 50.5t120.5 -50.5t50.5 -120.5t-50.5 -120t-120.5 -50t-120 50t-50 120zM498 643q0 -62 44.5 -107t107.5 -45q62 0 106.5 45t44.5 107t-44.5 106.5t-106.5 44.5q-63 0 -107.5 -44.5t-44.5 -106.5zM235 113q0 55 40 95.5
t98 40.5q55 0 96 -40.5t41 -95.5q0 -58 -41 -98t-96 -40q-58 0 -98 40t-40 98zM262 113q0 -46 32.5 -78.5t78.5 -32.5q44 0 76.5 32.5t32.5 78.5q0 44 -32.5 76.5t-76.5 32.5q-46 0 -78.5 -32.5t-32.5 -76.5zM203 113q0 70 50 120t120 50t120 -50t50 -120q0 -71 -50 -120.5
t-120 -49.5t-120 49.5t-50 120.5zM221 113q0 -63 44.5 -107.5t107.5 -44.5q62 0 106.5 44.5t44.5 107.5q0 61 -44.5 106t-106.5 45q-63 0 -107.5 -45t-44.5 -106zM587 244q0 56 40 96.5t97 40.5q56 0 96.5 -40.5t40.5 -96.5q0 -57 -40.5 -97t-96.5 -40q-57 0 -97 40t-40 97z
M554 244q0 70 50 120.5t120 50.5t120.5 -50.5t50.5 -120.5t-50.5 -120t-120.5 -50t-120 50t-50 120zM572 244q0 -62 44.5 -107t107.5 -45q62 0 106.5 45t44.5 107t-44.5 106.5t-106.5 44.5q-63 0 -107.5 -44.5t-44.5 -106.5z" />
    <glyph glyph-name="v" unicode="v" horiz-adv-x="1024" 
d="M161 512q0 55 40 95.5t98 40.5q55 0 96 -40.5t41 -95.5q0 -58 -41 -98t-96 -40q-58 0 -98 40t-40 98zM129 512q0 70 50 120t120 50t120 -50t50 -120q0 -71 -50 -120.5t-120 -49.5t-120 49.5t-50 120.5zM147 512q0 -63 44.5 -107.5t107.5 -44.5q62 0 106.5 44.5
t44.5 107.5q0 61 -44.5 106t-106.5 45q-63 0 -107.5 -45t-44.5 -106zM513 643q0 56 40 96.5t97 40.5q56 0 96.5 -40.5t40.5 -96.5q0 -57 -40.5 -97t-96.5 -40q-57 0 -97 40t-40 97zM540 643q0 -45 32.5 -77.5t77.5 -32.5t77.5 32.5t32.5 77.5t-32.5 77.5t-77.5 32.5
t-77.5 -32.5t-32.5 -77.5zM480 643q0 70 50 120.5t120 50.5t120.5 -50.5t50.5 -120.5t-50.5 -120t-120.5 -50t-120 50t-50 120zM498 643q0 -62 44.5 -107t107.5 -45q62 0 106.5 45t44.5 107t-44.5 106.5t-106.5 44.5q-63 0 -107.5 -44.5t-44.5 -106.5zM235 113q0 55 40 95.5
t98 40.5q55 0 96 -40.5t41 -95.5q0 -58 -41 -98t-96 -40q-58 0 -98 40t-40 98zM203 113q0 70 50 120t120 50t120 -50t50 -120q0 -71 -50 -120.5t-120 -49.5t-120 49.5t-50 120.5zM221 113q0 -63 44.5 -107.5t107.5 -44.5q62 0 106.5 44.5t44.5 107.5q0 61 -44.5 106
t-106.5 45q-63 0 -107.5 -45t-44.5 -106zM587 244q0 56 40 96.5t97 40.5q56 0 96.5 -40.5t40.5 -96.5q0 -57 -40.5 -97t-96.5 -40q-57 0 -97 40t-40 97zM614 244q0 -45 32.5 -77.5t77.5 -32.5t77.5 32.5t32.5 77.5t-32.5 77.5t-77.5 32.5t-77.5 -32.5t-32.5 -77.5zM554 244
q0 70 50 120.5t120 50.5t120.5 -50.5t50.5 -120.5t-50.5 -120t-120.5 -50t-120 50t-50 120zM572 244q0 -62 44.5 -107t107.5 -45q62 0 106.5 45t44.5 107t-44.5 106.5t-106.5 44.5q-63 0 -107.5 -44.5t-44.5 -106.5z" />
    <glyph glyph-name="w" unicode="w" horiz-adv-x="1024" 
d="M854 352h-196v-296h-292v296h-195l340 361zM772 388l-261 274l-259 -274h148v-296h224v296h148z" />
    <glyph glyph-name="x" unicode="x" horiz-adv-x="1024" 
d="M854 417l-343 -361l-336 361h191v296h292v-296h196zM772 381h-148v296h-224v-296h-148l259 -274z" />
    <glyph glyph-name="y" unicode="y" horiz-adv-x="1024" 
d="M161 512q0 55 40 95.5t98 40.5q55 0 96 -40.5t41 -95.5q0 -58 -41 -98t-96 -40q-58 0 -98 40t-40 98zM129 512q0 70 50 120t120 50t120 -50t50 -120q0 -71 -50 -120.5t-120 -49.5t-120 49.5t-50 120.5zM147 512q0 -63 44.5 -107.5t107.5 -44.5q62 0 106.5 44.5
t44.5 107.5q0 61 -44.5 106t-106.5 45q-63 0 -107.5 -45t-44.5 -106zM513 643q0 56 40 96.5t97 40.5q56 0 96.5 -40.5t40.5 -96.5q0 -57 -40.5 -97t-96.5 -40q-57 0 -97 40t-40 97zM480 643q0 70 50 120.5t120 50.5t120.5 -50.5t50.5 -120.5t-50.5 -120t-120.5 -50t-120 50
t-50 120zM498 643q0 -62 44.5 -107t107.5 -45q62 0 106.5 45t44.5 107t-44.5 106.5t-106.5 44.5q-63 0 -107.5 -44.5t-44.5 -106.5zM235 113q0 55 40 95.5t98 40.5q55 0 96 -40.5t41 -95.5q0 -58 -41 -98t-96 -40q-58 0 -98 40t-40 98zM262 113q0 -46 32.5 -78.5t78.5 -32.5
q44 0 76.5 32.5t32.5 78.5q0 44 -32.5 76.5t-76.5 32.5q-46 0 -78.5 -32.5t-32.5 -76.5zM203 113q0 70 50 120t120 50t120 -50t50 -120q0 -71 -50 -120.5t-120 -49.5t-120 49.5t-50 120.5zM221 113q0 -63 44.5 -107.5t107.5 -44.5q62 0 106.5 44.5t44.5 107.5
q0 61 -44.5 106t-106.5 45q-63 0 -107.5 -45t-44.5 -106zM587 244q0 56 40 96.5t97 40.5q56 0 96.5 -40.5t40.5 -96.5q0 -57 -40.5 -97t-96.5 -40q-57 0 -97 40t-40 97zM614 244q0 -45 32.5 -77.5t77.5 -32.5t77.5 32.5t32.5 77.5t-32.5 77.5t-77.5 32.5t-77.5 -32.5
t-32.5 -77.5zM554 244q0 70 50 120.5t120 50.5t120.5 -50.5t50.5 -120.5t-50.5 -120t-120.5 -50t-120 50t-50 120zM572 244q0 -62 44.5 -107t107.5 -45q62 0 106.5 45t44.5 107t-44.5 106.5t-106.5 44.5q-63 0 -107.5 -44.5t-44.5 -106.5z" />
    <glyph glyph-name="z" unicode="z" horiz-adv-x="1024" 
d="M723 109h-487v488l141 -142l211 209l205 -206l-209 -210zM640 143l-105 104l209 210l-158 158l-209 -209l-105 105v-368h368z" />
    <glyph glyph-name="braceleft" unicode="{" horiz-adv-x="1024" 
d="M63 264q0 58 41 99.5t100 41.5q58 0 99.5 -41.5t41.5 -99.5q0 -59 -41.5 -100t-99.5 -41q-59 0 -100 41t-41 100zM77 264q0 -52 37.5 -89t89.5 -37q51 0 88.5 37t37.5 89q0 50 -37.5 88t-88.5 38q-52 0 -89.5 -38t-37.5 -88zM89 264q0 45 33 79t82 34q44 0 78.5 -34
t34.5 -79q0 -50 -34.5 -81t-78.5 -31q-49 0 -82 31t-33 81zM111 264q0 -39 27 -64.5t66 -25.5q36 0 63.5 25.5t27.5 64.5q0 36 -27.5 63.5t-63.5 27.5q-39 0 -66 -27.5t-27 -63.5zM382 468q0 48 33.5 81.5t80.5 33.5t81 -33.5t34 -81.5q0 -46 -34 -80t-81 -34t-80.5 34
t-33.5 80zM404 468q0 -37 27.5 -64t64.5 -27q38 0 65.5 27t27.5 64q0 38 -27.5 65t-65.5 27q-37 0 -64.5 -27t-27.5 -65zM355 468q0 59 41.5 102t99.5 43q59 0 101 -43t42 -102q0 -58 -42 -99.5t-101 -41.5q-58 0 -99.5 41.5t-41.5 99.5zM370 468q0 -51 37 -88.5t89 -37.5
t89 37.5t37 88.5q0 54 -37 90.5t-89 36.5t-89 -36.5t-37 -90.5zM703 500q0 48 33.5 81.5t80.5 33.5t80.5 -33.5t33.5 -81.5q0 -46 -33.5 -80t-80.5 -34t-80.5 34t-33.5 80zM675 500q0 59 41.5 102t100.5 43q58 0 101 -43t43 -102q0 -58 -43 -99.5t-101 -41.5
q-59 0 -100.5 41.5t-41.5 99.5zM690 500q0 -51 37.5 -88.5t89.5 -37.5t89 37.5t37 88.5q0 54 -37 90.5t-89 36.5t-89.5 -36.5t-37.5 -90.5z" />
    <glyph glyph-name="bar" unicode="|" horiz-adv-x="1024" 
d="M176 231q0 58 98 99.5t235 41.5t235.5 -41.5t98.5 -99.5v-14q117 -52 117 -123t-134 -124.5t-317 -53.5q-187 0 -316 53.5t-129 124.5t112 123v14zM217 242q0 -43 85.5 -75.5t206.5 -32.5q120 0 205.5 32.5t85.5 75.5q0 44 -85.5 74.5t-205.5 30.5q-121 0 -206.5 -30.5
t-85.5 -74.5zM744 136q-98 -42 -235 -42t-236 42q-35 15 -56 30v-1q0 -45 85.5 -76t206.5 -31q120 0 205.5 31t85.5 76v1q-20 -15 -56 -30zM843 155q0 -55 -98.5 -94.5t-235.5 -39.5t-235 39.5t-98 94.5v26q-59 -33 -59 -71q0 -63 114.5 -102.5t277.5 -39.5q159 0 275 39.5
t116 102.5q0 38 -57 70v-25zM368 832h288l-144 -144zM368 688h288l-144 -144zM368 544h288l-144 -144z" />
    <glyph glyph-name="braceright" unicode="}" horiz-adv-x="1024" 
d="M63 264q0 58 41 99.5t100 41.5q58 0 99.5 -41.5t41.5 -99.5q0 -59 -41.5 -100t-99.5 -41q-59 0 -100 41t-41 100zM77 264q0 -52 37.5 -89t89.5 -37q51 0 88.5 37t37.5 89q0 50 -37.5 88t-88.5 38q-52 0 -89.5 -38t-37.5 -88zM89 264q0 45 33 79t82 34q44 0 78.5 -34
t34.5 -79q0 -50 -34.5 -81t-78.5 -31q-49 0 -82 31t-33 81zM111 264q0 -39 27 -64.5t66 -25.5q36 0 63.5 25.5t27.5 64.5q0 36 -27.5 63.5t-63.5 27.5q-39 0 -66 -27.5t-27 -63.5zM382 468q0 48 33.5 81.5t80.5 33.5t81 -33.5t34 -81.5q0 -46 -34 -80t-81 -34t-80.5 34
t-33.5 80zM404 468q0 -37 27.5 -64t64.5 -27q38 0 65.5 27t27.5 64q0 38 -27.5 65t-65.5 27q-37 0 -64.5 -27t-27.5 -65zM355 468q0 59 41.5 102t99.5 43q59 0 101 -43t42 -102q0 -58 -42 -99.5t-101 -41.5q-58 0 -99.5 41.5t-41.5 99.5zM370 468q0 -51 37 -88.5t89 -37.5
t89 37.5t37 88.5q0 54 -37 90.5t-89 36.5t-89 -36.5t-37 -90.5zM703 500q0 48 33.5 81.5t80.5 33.5t80.5 -33.5t33.5 -81.5q0 -46 -33.5 -80t-80.5 -34t-80.5 34t-33.5 80zM725 500q0 -37 27.5 -64t64.5 -27q38 0 64.5 27t26.5 64q0 38 -26.5 65t-64.5 27q-37 0 -64.5 -27
t-27.5 -65zM675 500q0 59 41.5 102t100.5 43q58 0 101 -43t43 -102q0 -58 -43 -99.5t-101 -41.5q-59 0 -100.5 41.5t-41.5 99.5zM690 500q0 -51 37.5 -88.5t89.5 -37.5t89 37.5t37 88.5q0 54 -37 90.5t-89 36.5t-89.5 -36.5t-37.5 -90.5z" />
    <glyph glyph-name="asciitilde" unicode="~" horiz-adv-x="1024" 
d="M96 128q-26 0 -45 19t-19 45v160q0 26 19 45t45 19h896v-288h-896zM64 192q0 -13 9.5 -22.5t22.5 -9.5h864v224h-864q-13 0 -22.5 -9.5t-9.5 -22.5v-160zM403 832h43v-312h175v-39h-218v351z" />
    <glyph glyph-name="Adieresis" unicode="&#xc4;" 
 />
    <glyph glyph-name="Aring" unicode="&#xc5;" 
 />
    <glyph glyph-name="Ccedilla" unicode="&#xc7;" 
 />
    <glyph glyph-name="Eacute" unicode="&#xc9;" 
 />
    <glyph glyph-name="Ntilde" unicode="&#xd1;" 
 />
    <glyph glyph-name="Odieresis" unicode="&#xd6;" 
 />
    <glyph glyph-name="Udieresis" unicode="&#xdc;" 
 />
    <glyph glyph-name="aacute" unicode="&#xe1;" 
 />
    <glyph glyph-name="agrave" unicode="&#xe0;" 
 />
    <glyph glyph-name="acircumflex" unicode="&#xe2;" 
 />
    <glyph glyph-name="adieresis" unicode="&#xe4;" 
 />
    <glyph glyph-name="atilde" unicode="&#xe3;" 
 />
    <glyph glyph-name="aring" unicode="&#xe5;" 
 />
    <glyph glyph-name="ccedilla" unicode="&#xe7;" 
 />
    <glyph glyph-name="eacute" unicode="&#xe9;" 
 />
    <glyph glyph-name="egrave" unicode="&#xe8;" 
 />
    <glyph glyph-name="ecircumflex" unicode="&#xea;" 
 />
    <glyph glyph-name="edieresis" unicode="&#xeb;" 
 />
    <glyph glyph-name="iacute" unicode="&#xed;" 
 />
    <glyph glyph-name="igrave" unicode="&#xec;" 
 />
    <glyph glyph-name="icircumflex" unicode="&#xee;" 
 />
    <glyph glyph-name="idieresis" unicode="&#xef;" 
 />
    <glyph glyph-name="ntilde" unicode="&#xf1;" 
 />
    <glyph glyph-name="oacute" unicode="&#xf3;" 
 />
    <glyph glyph-name="ograve" unicode="&#xf2;" 
 />
    <glyph glyph-name="ocircumflex" unicode="&#xf4;" 
 />
    <glyph glyph-name="odieresis" unicode="&#xf6;" 
 />
    <glyph glyph-name="otilde" unicode="&#xf5;" 
 />
    <glyph glyph-name="uacute" unicode="&#xfa;" 
 />
    <glyph glyph-name="ugrave" unicode="&#xf9;" 
 />
    <glyph glyph-name="ucircumflex" unicode="&#xfb;" 
 />
    <glyph glyph-name="udieresis" unicode="&#xfc;" 
 />
    <glyph glyph-name="dagger" unicode="&#x2020;" 
 />
    <glyph glyph-name="degree" unicode="&#xb0;" 
 />
    <glyph glyph-name="cent" unicode="&#xa2;" 
 />
    <glyph glyph-name="sterling" unicode="&#xa3;" 
 />
    <glyph glyph-name="section" unicode="&#xa7;" 
 />
    <glyph glyph-name="bullet" unicode="&#x2022;" 
 />
    <glyph glyph-name="paragraph" unicode="&#xb6;" 
 />
    <glyph glyph-name="germandbls" unicode="&#xdf;" 
 />
    <glyph glyph-name="registered" unicode="&#xae;" 
 />
    <glyph glyph-name="copyright" unicode="&#xa9;" 
 />
    <glyph glyph-name="trademark" unicode="&#x2122;" 
 />
    <glyph glyph-name="acute" unicode="&#xb4;" 
 />
    <glyph glyph-name="dieresis" unicode="&#xa8;" 
 />
    <glyph glyph-name="notequal" unicode="&#x2260;" 
 />
    <glyph glyph-name="AE" unicode="&#xc6;" 
 />
    <glyph glyph-name="Oslash" unicode="&#xd8;" 
 />
    <glyph glyph-name="infinity" unicode="&#x221e;" 
 />
    <glyph glyph-name="plusminus" unicode="&#xb1;" 
 />
    <glyph glyph-name="lessequal" unicode="&#x2264;" 
 />
    <glyph glyph-name="greaterequal" unicode="&#x2265;" 
 />
    <glyph glyph-name="yen" unicode="&#xa5;" 
 />
    <glyph glyph-name="uni00B5" unicode="&#xb5;" 
 />
    <glyph glyph-name="partialdiff" unicode="&#x2202;" 
 />
    <glyph glyph-name="summation" unicode="&#x2211;" 
 />
    <glyph glyph-name="product" unicode="&#x220f;" 
 />
    <glyph glyph-name="pi" unicode="&#x3c0;" 
 />
    <glyph glyph-name="integral" unicode="&#x222b;" 
 />
    <glyph glyph-name="ordfeminine" unicode="&#xaa;" 
 />
    <glyph glyph-name="ordmasculine" unicode="&#xba;" 
 />
    <glyph glyph-name="Omega" unicode="&#x3a9;" 
 />
    <glyph glyph-name="ae" unicode="&#xe6;" 
 />
    <glyph glyph-name="oslash" unicode="&#xf8;" 
 />
    <glyph glyph-name="questiondown" unicode="&#xbf;" 
 />
    <glyph glyph-name="exclamdown" unicode="&#xa1;" 
 />
    <glyph glyph-name="logicalnot" unicode="&#xac;" 
 />
    <glyph glyph-name="radical" unicode="&#x221a;" 
 />
    <glyph glyph-name="florin" unicode="&#x192;" 
 />
    <glyph glyph-name="approxequal" unicode="&#x2248;" 
 />
    <glyph glyph-name="uni2206" unicode="&#x2206;" 
 />
    <glyph glyph-name="uni2206" unicode="&#x394;" 
 />
    <glyph glyph-name="guillemotleft" unicode="&#xab;" 
 />
    <glyph glyph-name="guillemotright" unicode="&#xbb;" 
 />
    <glyph glyph-name="ellipsis" unicode="&#x2026;" 
 />
    <glyph glyph-name="uni00A0" unicode="&#xa0;" 
 />
    <glyph glyph-name="Agrave" unicode="&#xc0;" 
 />
    <glyph glyph-name="Atilde" unicode="&#xc3;" 
 />
    <glyph glyph-name="Otilde" unicode="&#xd5;" 
 />
    <glyph glyph-name="OE" unicode="&#x152;" 
 />
    <glyph glyph-name="oe" unicode="&#x153;" 
 />
    <glyph glyph-name="endash" unicode="&#x2013;" 
 />
    <glyph glyph-name="emdash" unicode="&#x2014;" 
 />
    <glyph glyph-name="quotedblleft" unicode="&#x201c;" 
 />
    <glyph glyph-name="quotedblright" unicode="&#x201d;" 
 />
    <glyph glyph-name="quoteleft" unicode="&#x2018;" 
 />
    <glyph glyph-name="quoteright" unicode="&#x2019;" 
 />
    <glyph glyph-name="divide" unicode="&#xf7;" 
 />
    <glyph glyph-name="lozenge" unicode="&#x25ca;" 
 />
    <glyph glyph-name="ydieresis" unicode="&#xff;" 
 />
    <glyph glyph-name="Ydieresis" unicode="&#x178;" 
 />
    <glyph glyph-name="fraction" unicode="&#x2044;" 
 />
    <glyph glyph-name="Euro" unicode="&#x20ac;" 
 />
    <glyph glyph-name="guilsinglleft" unicode="&#x2039;" 
 />
    <glyph glyph-name="guilsinglright" unicode="&#x203a;" 
 />
    <glyph glyph-name="uniFB01" unicode="&#xfb01;" 
 />
    <glyph glyph-name="uniFB02" unicode="&#xfb02;" 
 />
    <glyph glyph-name="daggerdbl" unicode="&#x2021;" 
 />
    <glyph glyph-name="periodcentered" unicode="&#xb7;" 
 />
    <glyph glyph-name="quotesinglbase" unicode="&#x201a;" 
 />
    <glyph glyph-name="quotedblbase" unicode="&#x201e;" 
 />
    <glyph glyph-name="perthousand" unicode="&#x2030;" 
 />
    <glyph glyph-name="Acircumflex" unicode="&#xc2;" 
 />
    <glyph glyph-name="Ecircumflex" unicode="&#xca;" 
 />
    <glyph glyph-name="Aacute" unicode="&#xc1;" 
 />
    <glyph glyph-name="Edieresis" unicode="&#xcb;" 
 />
    <glyph glyph-name="Egrave" unicode="&#xc8;" 
 />
    <glyph glyph-name="Iacute" unicode="&#xcd;" 
 />
    <glyph glyph-name="Icircumflex" unicode="&#xce;" 
 />
    <glyph glyph-name="Idieresis" unicode="&#xcf;" 
 />
    <glyph glyph-name="Igrave" unicode="&#xcc;" 
 />
    <glyph glyph-name="Oacute" unicode="&#xd3;" 
 />
    <glyph glyph-name="Ocircumflex" unicode="&#xd4;" 
 />
    <glyph glyph-name="uniF8FF" unicode="&#xf8ff;" 
 />
    <glyph glyph-name="uniF8FF" unicode="&#xe01e;" 
 />
    <glyph glyph-name="Ograve" unicode="&#xd2;" 
 />
    <glyph glyph-name="Uacute" unicode="&#xda;" 
 />
    <glyph glyph-name="Ucircumflex" unicode="&#xdb;" 
 />
    <glyph glyph-name="Ugrave" unicode="&#xd9;" 
 />
    <glyph glyph-name="dotlessi" unicode="&#x131;" 
 />
    <glyph glyph-name="circumflex" unicode="&#x2c6;" 
 />
    <glyph glyph-name="tilde" unicode="&#x2dc;" 
 />
    <glyph glyph-name="macron" unicode="&#xaf;" 
 />
    <glyph glyph-name="breve" unicode="&#x2d8;" 
 />
    <glyph glyph-name="dotaccent" unicode="&#x2d9;" 
 />
    <glyph glyph-name="ring" unicode="&#x2da;" 
 />
    <glyph glyph-name="cedilla" unicode="&#xb8;" 
 />
    <glyph glyph-name="hungarumlaut" unicode="&#x2dd;" 
 />
    <glyph glyph-name="ogonek" unicode="&#x2db;" 
 />
    <glyph glyph-name="caron" unicode="&#x2c7;" 
 />
    <glyph glyph-name="glyph225" 
 />
  </font>
</defs>
</svg>
